1. Hãy ủng hộ PhienBanMoi.Com bằng cách LIKE trang FANPAGE , GOOGLE+ dưới mỗi bài viết hoặc chia sẻ website nếu thấy hữu ích. Trân trọng cảm ơn!
  2. [Thông Báo] Thông Báo Tuyển mod cho toàn diễn đàn


    Forum mới lập rất cần sự giúp đỡ của các bạn vậy nên bạn nào có khả năng thì đăng kí tham gia làm mod để quản lí, phát triển diễn đàn nhé!

Phim [18+] Origin Of Monogamy 2013 720p HDRip H264-ONBiZNET - Chuyện Vợ Chồng

Thảo luận trong 'Phim HD , mHD' bắt đầu bởi #kulee@, 26 Tháng tư 2014.


  1. #kulee@

    #kulee@ Moderator Ban Quản Trị

    89
    154
    93
    Origin Of Monogamy 2013 720p HDRip H264-ONBiZNET
    Chuyện Vợ Chồng
    Yiseonjin, Iyo Castle, Yangyoungryun, Anbyeongchan, Choi Yoon Seul



    [​IMG]

    [​IMG]
    Mã:
    Complete name                  : Gyeulhoneui.Giwon.2013.720p.HDRip.H264-ONBiZNET.mp4
    Format                         : MPEG-4
    Format profile                 : Base Media
    Codec ID                       : isom
    File size                      : 2.27 GiB
    Duration                       : 1h 43mn
    Overall bit rate mode          : Variable
    Overall bit rate               : 3 142 Kbps
    Writing application            : Lavf53.6.0
    
    Video
    =====
    ID                             : 1
    Format                         : AVC
    Format/Info                    : Advanced Video Codec
    Format profile                 : Main@L3.0
    Format settings, CABAC         : Yes
    Format settings, ReFrames      : 1 frame
    Format settings, GOP           : M=1, N=30
    Codec ID                       : avc1
    Codec ID/Info                  : Advanced Video Coding
    Duration                       : 1h 43mn
    Bit rate                       : 3 000 Kbps
    Width                          : 1 280 pixels
    Height                         : 720 pixels
    Display aspect ratio           : 16:9
    Frame rate mode                : Constant
    Frame rate                     : 29.970 fps
    Color space                    : YUV
    Chroma subsampling             : 4:2:0
    Bit depth                      : 8 bits
    Scan type                      : Progressive
    Bits/(Pixel*Frame)             : 0.109
    Stream size                    : 2.14 GiB (94%)
    Writing library                : x264 core 116
    Language                       : English
    
    Audio
    =====
    ID                             : 2
    Format                         : AAC
    Format/Info                    : Advanced Audio Codec
    Format profile                 : LC
    Codec ID                       : 40
    Duration                       : 1h 43mn
    Bit rate mode                  : Variable
    Bit rate                       : 175 Kbps
    Maximum bit rate               : 192 Kbps
    Channel(s)                     : 2 channels
    Channel positions              : Front: L R
    Sampling rate                  : 44.1 KHz
    Compression mode               : Lossy
    Stream size                    : 130 MiB (6%)
    Language                       : Korean
    [​IMG]
    [​IMG]
    [​IMG]
    [​IMG]


    [​IMG]


    [​IMG]


    1 Link ~ 2,28GB

    [​IMG]
    FSHARE

    [​IMG]
    TENLUA

    ALL VESIONS 720p & 1080p & ReMux
    [​IMG]
    SUB VIỆT
    [​IMG]

    Xin vui lòng đăng nhập hoặc đăng ký để xem liên kết

    [​IMG]
     
  2. #kulee@

    #kulee@ Moderator Ban Quản Trị

    89
    154
    93
    bạn muốn mua Point thì có thể pm nick Yahoo này : boy_obstinate_hp9x
    bảo [HASHTAG]#kulee[/HASHTAG]@ giới thiệu là đc :)
     
    forever8082 thích bài này.

Chia sẻ trang này