1. Hãy ủng hộ PhienBanMoi.Com bằng cách LIKE trang FANPAGE , GOOGLE+ dưới mỗi bài viết hoặc chia sẻ website nếu thấy hữu ích. Trân trọng cảm ơn!
  2. [Thông Báo] Thông Báo Tuyển mod cho toàn diễn đàn


    Forum mới lập rất cần sự giúp đỡ của các bạn vậy nên bạn nào có khả năng thì đăng kí tham gia làm mod để quản lí, phát triển diễn đàn nhé!

Phim Alien Covenant 2017 1080p KORSUB HDRip x264 AAC2.0-STUTTERSHIT~ Quái Vật Không Gian

Thảo luận trong 'Phim Lẻ' bắt đầu bởi gianlan123, 3 Tháng bảy 2017.

Tags:

  1. gianlan123

    gianlan123 Moderator Ban Quản Trị

    1,580
    597
    113
    Tên thật:
    Tèo
    Alien Covenant 2017 1080p KORSUB HDRip x264 AAC2.0-STUTTERSHIT
    Quái Vật Không Gian



    [​IMG]



    Mã:
    
    
    
    
    Video
    ID                                       : 1
    Format                                   : AVC
    Format/Info                              : Advanced Video Codec
    Format profile                           : High@L4.1
    Format settings, CABAC                   : Yes
    Format settings, ReFrames                : 4 frames
    Codec ID                                 : avc1
    Codec ID/Info                            : Advanced Video Coding
    Duration                                 : 2 h 2 min
    Bit rate                                 : 4 500 kb/s
    Width                                    : 1 920 pixels
    Height                                   : 1 080 pixels
    Display aspect ratio                     : 16:9
    Frame rate mode                          : Constant
    Frame rate                               : 30.000 FPS
    Color space                              : YUV
    Chroma subsampling                       : 4:2:0
    Bit depth                                : 8 bits
    Scan type                                : Progressive
    Bits/(Pixel*Frame)                       : 0.072
    Stream size                              : 3.79 GiB (95%)
    Title                                    : Alien.Covenant.2017.1080p.KORSUB.HDRip.x264.AAC2.0-STUTTERSHIT
    Writing library                          : x264 core 148 r2597M e86f3a1
    Encoding settings                        : cabac=1 / ref=4 / deblock=1:0:0 / analyse=0x3:0x113 / me=umh / subme=8 / psy=1 / psy_rd=1.00:0.00 / mixed_ref=1 / me_range=16 / chroma_me=1 / trellis=1 / 8x8dct=1 / cqm=0 / deadzone=21,11 / fast_pskip=1 / chroma_qp_offset=-2 / threads=40 / lookahead_threads=6 / sliced_threads=0 / nr=0 / decimate=1 / interlaced=0 / bluray_compat=0 / constrained_intra=0 / bframes=3 / b_pyramid=2 / b_adapt=2 / b_bias=0 / direct=3 / weightb=1 / open_gop=0 / weightp=2 / keyint=250 / keyint_min=25 / scenecut=40 / intra_refresh=0 / rc_lookahead=50 / rc=abr / mbtree=1 / bitrate=4500 / ratetol=1.0 / qcomp=0.60 / qpmin=0 / qpmax=69 / qpstep=4 / ip_ratio=1.40 / aq=1:1.00
    
    Audio
    ID                                       : 2
    Format                                   : AAC
    Format/Info                              : Advanced Audio Codec
    Format profile                           : LC
    Codec ID                                 : 40
    Duration                                 : 2 h 2 min
    Duration_LastFrame                       : 32 ms
    Bit rate mode                            : Constant
    Bit rate                                 : 224 kb/s
    Channel(s)                               : 2 channels
    Channel positions                        : Front: L R
    Sampling rate                            : 48.0 kHz
    Frame rate                               : 46.875 FPS (1024 spf)
    Compression mode                         : Lossy
    Stream size                              : 195 MiB (5%)
    Title                                    : Alien.Covenant.2017.1080p.KORSUB.HDRip.x264.AAC2.0-STUTTERSHIT
    Default                                  : Yes
    Alternate group                          : 1
    
    
    
    
    
    
    
    
    



    Con tàu vũ trụ mang tên Covenant gồm các cặp vợ chồng nhằm tìm kiếm vùng định cư mới cho Trái Đất. Thế nhưng xứ sở này không phải là thiên đường như họ tưởng. Hành tinh được chọn tưởng như vô cùng hùng vĩ và nên thơ, thế nhưng đằng sau nó lại là một địa ngục trần gian. Bi kịch bắt đầu khi nhóm thám hiểm tìm ra xác tàu của các Kỹ sư (Engineer) - Chiếc tàu chứa đựng hàng trăm nghìn trứng của loài Xenomorph khủng khiếp. Hàng loạt trứng của Xenomorph nở và tấn công những nhà thám hiểm xấu số.







    [​IMG]





    Link 4Share.vn

    Subscene

     

Chia sẻ trang này