1. Hãy ủng hộ PhienBanMoi.Com bằng cách LIKE trang FANPAGE , GOOGLE+ dưới mỗi bài viết hoặc chia sẻ website nếu thấy hữu ích. Trân trọng cảm ơn!
  2. [Thông Báo] Tuyển thành viên viết bài KIẾM TIỀN trên PhienBanMoi.Com


    Nhằm mục đích phát triển Phienbanmoi.com hơn nữa, có thêm các bài viết thông tin thực sự hữu ích từ những thành viên tích cực. BQT đã quyến định tạo ra cơ hội kiếm tiền từ các bài viết được đăng tải và chia sẻ trên diễn đàn

Phim Assassination Games 2011 1080p Bluray x264-FilmHD | Trò Chơi Sát Thủ

Thảo luận trong 'Phim HD , mHD' bắt đầu bởi gianlan123, 12 Tháng mười một 2017.

  1. gianlan123 Moderator

    1,705
    616
    113

    Lượt xem: 393


    Assassination Games 2011 1080p Bluray x264-FilmHD
    Trò Chơi Sát Thủ

    [​IMG]




    Mã:
    
    
    Video
    ID                                       : 1
    Format                                   : AVC
    Format/Info                              : Advanced Video Codec
    Format profile                           : High@L4.1
    Format settings                          : CABAC / 4 Ref Frames
    Format settings, CABAC                   : Yes
    Format settings, ReFrames                : 4 frames
    Codec ID                                 : V_MPEG4/ISO/AVC
    Duration                                 : 1 h 39 min
    Bit rate                                 : 9 459 kb/s
    Width                                    : 1 920 pixels
    Height                                   : 1 080 pixels
    Display aspect ratio                     : 16:9
    Frame rate mode                          : Constant
    Frame rate                               : 23.976 (24000/1001) FPS
    Color space                              : YUV
    Chroma subsampling                       : 4:2:0
    Bit depth                                : 8 bits
    Scan type                                : Progressive
    Bits/(Pixel*Frame)                       : 0.190
    Stream size                              : 6.44 GiB (84%)
    Writing library                          : x264 core 142 r2389 956c8d8
    Encoding settings                        : cabac=1 / ref=4 / deblock=1:-3:-3 / analyse=0x3:0x113 / me=umh / subme=8 / psy=1 / psy_rd=1.00:0.00 / mixed_ref=1 / me_range=16 / chroma_me=1 / trellis=1 / 8x8dct=1 / cqm=0 / deadzone=21,11 / fast_pskip=1 / chroma_qp_offset=-2 / threads=12 / lookahead_threads=2 / sliced_threads=0 / nr=0 / decimate=1 / interlaced=0 / bluray_compat=0 / constrained_intra=0 / bframes=3 / b_pyramid=2 / b_adapt=2 / b_bias=0 / direct=3 / weightb=1 / open_gop=0 / weightp=2 / keyint=240 / keyint_min=24 / scenecut=40 / intra_refresh=0 / rc_lookahead=50 / rc=2pass / mbtree=1 / bitrate=9459 / ratetol=1.0 / qcomp=0.60 / qpmin=0 / qpmax=69 / qpstep=4 / cplxblur=20.0 / qblur=0.5 / ip_ratio=1.40 / aq=1:1.00
    Language                                 : English
    Default                                  : Yes
    Forced                                   : No
    
    Audio
    ID                                       : 2
    Format                                   : DTS
    Format/Info                              : Digital Theater Systems
    Codec ID                                 : A_DTS
    Duration                                 : 1 h 39 min
    Bit rate mode                            : Constant
    Bit rate                                 : 1 509 kb/s
    Channel(s)                               : 6 channels
    Channel positions                        : Front: L C R, Side: L R, LFE
    Sampling rate                            : 48.0 kHz
    Frame rate                               : 93.750 FPS (512 SPF)
    Bit depth                                : 24 bits
    Compression mode                         : Lossy
    Stream size                              : 1.05 GiB (14%)
    Title                                    : English
    Language                                 : English
    Default                                  : Yes
    Forced                                   : No
    
    Text #1
    ID                                       : 3
    Format                                   : UTF-8
    Codec ID                                 : S_TEXT/UTF8
    Codec ID/Info                            : UTF-8 Plain Text
    Title                                    : English - forced
    Language                                 : English
    Default                                  : Yes
    Forced                                   : Yes
    
    Text #2
    ID                                       : 4
    Format                                   : UTF-8
    Codec ID                                 : S_TEXT/UTF8
    Codec ID/Info                            : UTF-8 Plain Text
    Title                                    : English
    Language                                 : English
    Default                                  : No
    Forced                                   : No
    
    Menu
    00:00:00.000                             : en:00:00:00.000
    00:07:57.977                             : en:00:07:57.977
    00:11:13.715                             : en:00:11:13.715
    00:17:42.520                             : en:00:17:42.520
    00:21:57.650                             : en:00:21:57.650
    00:30:29.953                             : en:00:30:29.953
    00:37:04.597                             : en:00:37:04.597
    00:41:24.732                             : en:00:41:24.732
    00:46:33.457                             : en:00:46:33.457
    00:51:43.851                             : en:00:51:43.851
    00:58:31.591                             : en:00:58:31.591
    01:07:04.771                             : en:01:07:04.771
    01:11:32.538                             : en:01:11:32.538
    01:17:46.120                             : en:01:17:46.120
    01:23:49.608                             : en:01:23:49.608
    01:32:09.107                             : en:01:32:09.107
    
    
    

















     

    Bình Luận Bằng Facebook

Chia sẻ trang này

Từ khóa tìm kiếm từ Google :

  1. phim assassination games