1. Hãy ủng hộ PhienBanMoi.Com bằng cách LIKE trang FANPAGE , GOOGLE+ dưới mỗi bài viết hoặc chia sẻ website nếu thấy hữu ích. Trân trọng cảm ơn!
  2. [Thông Báo] Tuyển thành viên viết bài KIẾM TIỀN trên PhienBanMoi.Com


    Nhằm mục đích phát triển Phienbanmoi.com hơn nữa, có thêm các bài viết thông tin thực sự hữu ích từ những thành viên tích cực. BQT đã quyến định tạo ra cơ hội kiếm tiền từ các bài viết được đăng tải và chia sẻ trên diễn đàn

Phim Cyborg 1989 1080p Bluray x264-FilmHD | Người Nửa Máy

Thảo luận trong 'Phim HD , mHD' bắt đầu bởi gianlan123, 12 Tháng mười một 2017.

  1. gianlan123 Moderator

    1,705
    616
    113

    Lượt xem: 384


    Cyborg 1989 1080p Bluray x264-FilmHD
    Người Nửa Máy

    [​IMG]




    Mã:
    
    
    Video
    ID                                       : 1
    Format                                   : AVC
    Format/Info                              : Advanced Video Codec
    Format profile                           : High@L4.1
    Format settings                          : CABAC / 4 Ref Frames
    Format settings, CABAC                   : Yes
    Format settings, ReFrames                : 4 frames
    Codec ID                                 : V_MPEG4/ISO/AVC
    Duration                                 : 1 h 26 min
    Bit rate                                 : 8 300 kb/s
    Width                                    : 1 920 pixels
    Height                                   : 1 040 pixels
    Display aspect ratio                     : 1.85:1
    Frame rate mode                          : Constant
    Frame rate                               : 23.976 (24000/1001) FPS
    Color space                              : YUV
    Chroma subsampling                       : 4:2:0
    Bit depth                                : 8 bits
    Scan type                                : Progressive
    Bits/(Pixel*Frame)                       : 0.173
    Stream size                              : 4.90 GiB (90%)
    Writing library                          : x264 core 125 r2208 d9d2288
    Encoding settings                        : cabac=1 / ref=4 / deblock=1:0:0 / analyse=0x3:0x113 / me=umh / subme=8 / psy=1 / psy_rd=1.00:0.00 / mixed_ref=1 / me_range=16 / chroma_me=1 / trellis=1 / 8x8dct=1 / cqm=0 / deadzone=21,11 / fast_pskip=1 / chroma_qp_offset=-2 / threads=12 / lookahead_threads=2 / sliced_threads=0 / nr=0 / decimate=1 / interlaced=0 / bluray_compat=0 / constrained_intra=0 / bframes=3 / b_pyramid=2 / b_adapt=2 / b_bias=0 / direct=3 / weightb=1 / open_gop=0 / weightp=2 / keyint=240 / keyint_min=24 / scenecut=40 / intra_refresh=0 / rc_lookahead=50 / rc=2pass / mbtree=1 / bitrate=8300 / ratetol=1.0 / qcomp=0.60 / qpmin=0 / qpmax=69 / qpstep=4 / cplxblur=20.0 / qblur=0.5 / ip_ratio=1.40 / aq=1:1.00
    Language                                 : English
    Default                                  : Yes
    Forced                                   : No
    
    Audio
    ID                                       : 2
    Format                                   : DTS
    Format/Info                              : Digital Theater Systems
    Codec ID                                 : A_DTS
    Duration                                 : 1 h 26 min
    Bit rate mode                            : Constant
    Bit rate                                 : 768 kb/s
    Channel(s)                               : 6 channels
    Channel(s)_Original                      : 2 channels
    Channel positions                        : Front: L R
    Sampling rate                            : 48.0 kHz
    Frame rate                               : 93.750 FPS (512 SPF)
    Bit depth                                : 24 bits
    Compression mode                         : Lossy
    Stream size                              : 475 MiB (8%)
    Language                                 : English
    Default                                  : Yes
    Forced                                   : No
    
    Text
    ID                                       : 3
    Format                                   : UTF-8
    Codec ID                                 : S_TEXT/UTF8
    Codec ID/Info                            : UTF-8 Plain Text
    Language                                 : English
    Default                                  : No
    Forced                                   : No
    
    Menu
    00:00:00.000                             : en:00:00:00.000
    00:00:25.192                             : en:00:00:25.192
    00:04:14.087                             : en:00:04:14.087
    00:05:24.699                             : en:00:05:24.699
    00:10:31.881                             : en:00:10:31.881
    00:16:20.479                             : en:00:16:20.479
    00:23:38.167                             : en:00:23:38.167
    00:28:52.814                             : en:00:28:52.814
    00:32:34.077                             : en:00:32:34.077
    00:36:01.076                             : en:00:36:01.076
    00:40:01.482                             : en:00:40:01.482
    00:46:34.917                             : en:00:46:34.917
    00:49:52.364                             : en:00:49:52.364
    00:55:11.725                             : en:00:55:11.725
    00:56:38.103                             : en:00:56:38.103
    00:59:36.615                             : en:00:59:36.615
    01:05:58.037                             : en:01:05:58.037
    01:09:25.036                             : en:01:09:25.036
    01:12:41.566                             : en:01:12:41.566
    01:19:29.723                             : en:01:19:29.723
    01:22:11.802                             : en:01:22:11.802
    
    
    










    [​IMG]

    [​IMG]

    [​IMG]

    [​IMG]

    [​IMG]










     

    Bình Luận Bằng Facebook

Chia sẻ trang này