1. Kết quả Event Ghost 2016


    Dưới đây là danh sách những thành viên đoạt giải thưởng trong Event Ghost 2016

Phim Để Mai Tính 2 Full 720p 2014

Thảo luận trong 'Phim Lẻ' bắt đầu bởi #kulee@, 27 Tháng một 2015.


  1. #kulee@

    #kulee@ Moderator Ban Quản Trị

    89
    147
    93
    [Hài Tết] Để Mai Tính 2 720p 2014


    [​IMG]


    Mã:
    General
    Complete name                    : C:\Users\Kulee\Desktop\DMT2\De.Mai.Tinh.2-De.Mai.Hoi.Tinh.2015.mp4
    Format                           : MPEG-4
    Format profile                   : Base Media
    Codec ID                         : isom
    [URL="http://tech24h.vn/#"][U][B]File[U][B][IMG]http://cdncache1-a.akamaihd.net/items/it/img/arrow-10x10.png[/IMG][/B][/U][/B][/U][/URL] size                        : 3.90 GiB
    Duration                         : 1h 35mn
    Overall bit rate                 : 5 865 Kbps
    
    
    Video
    ID                               : 1
    Format                           : MPEG-4 Visual
    Format profile                   : Simple@L1
    Format settings, BVOP            : No
    Format settings, QPel            : No
    Format settings, GMC             : No warppoints
    Format settings, Matrix          : Default (H.263)
    Codec ID                         : 20
    Duration                         : 1h 35mn
    Bit rate mode                    : Variable
    Bit rate                         : 5 781 Kbps
    Width                            : 1 280 pixels
    Height                           : 720 pixels
    Display aspect ratio             : 16:9
    Frame rate mode                  : Constant
    Frame rate                       : 29.970 fps
    Color space                      : YUV
    Chroma subsampling               : 4:2:0
    Bit depth                        : 8 bits
    [URL="http://tech24h.vn/#"][U][B]Scan[U][B][IMG]http://cdncache1-a.akamaihd.net/items/it/img/arrow-10x10.png[/IMG][/B][/U][/B][/U][/URL] type                        : Progressive
    Compression mode                 : Lossy
    Bits/(Pixel*Frame)               : 0.209
    Stream size                      : 3.84 GiB (99%)
    
    
    Audio
    ID                               : 2
    Format                           : AAC
    Format/Info                      : Advanced Audio Codec
    Format profile                   : LC
    Codec ID                         : 40
    Duration                         : 1h 35mn
    Bit rate mode                    : Variable
    Bit rate                         : 80.9 Kbps
    Channel(s)                       : 2 channels
    Channel positions                : Front: L R
    Sampling rate                    : 44.1 KHz
    Compression mode                 : Lossy
    Stream size                      : 55.1 MiB (1%)
    




    DOWNLOAD
    Coment + Thank để Lấy Link


    4SHARE
     
  2. manh_chelsea

    manh_chelsea Member Mới

    4
    0
    1
     
  3. shinemystic

    shinemystic Member Tích Cực

    392
    145
    43
    Tên thật:
    Nhật Trường
    Bản này bản leak hay bản HD thế chủ top?
     
  4. lê thanh giảng

    lê thanh giảng Moderator Ban Quản Trị

    354
    127
    43
    sau mà có cái dụ
    Mã:
    Coment + Thank để Lấy Link
    nhỉ
    cái này không biết có hay không lấy về xem niếu hay thì quay lại like cho chủ thớt nha
     
  5. alabinit

    alabinit Member Mới

    4
    0
    1
  6. #kulee@

    #kulee@ Moderator Ban Quản Trị

    89
    147
    93
    Bạn leak nhé bạn
     
  7. kakalot_talama

    kakalot_talama Member Mới

    2
    0
    1
  8. ketoanmoi

    ketoanmoi Member Chính Thức

    26
    1
    3
    film này kéo về rồi xem như 3gp k nhìn dc luôn
     
  9. ketoanmoi

    ketoanmoi Member Chính Thức

    26
    1
    3
    sao toàn mod là uploader nhỉ?
     
  10. khoakute466

    khoakute466 Member Chính Thức

    26
    2
    3
  11. khoakute466

    khoakute466 Member Chính Thức

    26
    2
    3
    xin link di thớt
     
  12. LAM ^^^^

    LAM ^^^^ Member Chính Thức

    30
    7
    8
    phim nhãm loz chít mịa
     

Chia sẻ trang này