1. Kết quả Event Ghost 2016


    Dưới đây là danh sách những thành viên đoạt giải thưởng trong Event Ghost 2016

Phim [Fshare] Swelter 2014 720p BluRay x264 DTS-RARBG ~ Sức Nóng

Thảo luận trong 'Phim HD , mHD' bắt đầu bởi gianlan123, 20 Tháng sáu 2014.


  1. gianlan123

    gianlan123 Moderator Ban Quản Trị

    1,165
    559
    113
    Tên thật:
    Tèo


    Swelter 2014 720p BluRay x264 DTS-RARBG
    Sức Nóng
    Jean-Claude Van Damme, Adam Brody, Rob Huebel

    [​IMG]


    Mã:
    Video
    ID : 1
    Format : AVC
    Format/Info : Advanced Video Codec
    Format profile : High@L4.1
    Format settings, CABAC : Yes
    Format settings, ReFrames : 5 frames
    Codec ID : V_MPEG4/ISO/AVC
    Duration : 1h 36mn
    Bit rate : 5 006 Kbps
    Width : 1 280 pixels
    Height : 536 pixels
    Display aspect ratio : 2.40:1
    Frame rate mode : Constant
    Frame rate : 25.000 fps
    Color space : YUV
    Chroma subsampling : 4:2:0
    Bit depth : 8 bits
    Scan type : Progressive
    Bits/(Pixel*Frame) : 0.292
    Stream size : 3.27 GiB (75%)
    Title : Swelter.2014.720p.BluRay.x264.DTS-RARBG
    Writing library : x264 core 142 r2431 ac76440
    Language : English
    Default : Yes
    Forced : No
    
    Audio
    ID : 3
    Format : DTS
    Format/Info : Digital Theater Systems
    Mode : 16
    Format settings, Endianness : Big
    Codec ID : A_DTS
    Duration : 1h 36mn
    Bit rate mode : Constant
    Bit rate : 1 509 Kbps
    Channel(s) : 6 channels
    Channel positions : Front: L C R, Side: L R, LFE
    Sampling rate : 48.0 KHz
    Bit depth : 24 bits
    Compression mode : Lossy
    Stream size : 1.01 GiB (23%)
    Title : Swelter.2014.720p.BluRay.x264.DTS-RARBG
    Language : English
    Default : Yes
    Forced : No
    
    Text
    ID : 2
    Format : UTF-8
    Codec ID : S_TEXT/UTF8
    Codec ID/Info : UTF-8 Plain Text
    Title : Forced
    Language : French
    Default : Yes
    Forced : Yes
    
    Menu
    00:00:00.000 : en:00:00:00.000
    00:09:22.320 : en:00:09:22.320
    00:13:39.840 : en:00:13:39.840
    00:17:35.040 : en:00:17:35.040
    00:24:24.560 : en:00:24:24.560
    00:31:01.960 : en:00:31:01.960
    00:37:48.000 : en:00:37:48.000
    00:42:06.480 : en:00:42:06.480
    00:47:44.800 : en:00:47:44.800
    00:54:43.000 : en:00:54:43.000
    00:59:57.800 : en:00:59:57.800
    01:06:19.840 : en:01:06:19.840
    01:14:35.560 : en:01:14:35.560
    01:21:44.960 : en:01:21:44.960
    01:25:09.720 : en:01:25:09.720
    01:29:59.680 : en:01:29:59.680
    
    





    [​IMG]




    1 LINK
    Subtitle ( Sub Việt )
     

Chia sẻ trang này