1. Kết quả Event Ghost 2016


    Dưới đây là danh sách những thành viên đoạt giải thưởng trong Event Ghost 2016

Phim [ FsVN - 4sVN - KBS ] Wonderful Days 2014 - HD720 - Full 50 Tập - Hạnh Phúc Có Thật - { Lồng Tiếng }

Thảo luận trong 'Phim HD , mHD' bắt đầu bởi gianlan123, 10 Tháng chín 2014.


  1. gianlan123

    gianlan123 Moderator Ban Quản Trị

    1,165
    559
    113
    Tên thật:
    Tèo
    Wonderful Days 2014 HD720p
    Hạnh Phúc Có Thật
    (Lee Seo Jin, Kim Hui Seon, Ok Taecyeon (2PM), Ryu Seung Soo, Kim Ji Ho. )



    [​IMG]

    Mã:
      General
      Unique ID  : 231803095565663056206399271267111863640 (0xAE63A6FCD0BD2E13A55CAA8741B10558)
      Complete name  : I:\Phim Bo\Hạnh Phúc Có Thật - Wonderful Days 2014 HD720p (50Tập) (Hoa Sen Lồng Tiếng)\HanhPhucCoThat_HD720p_01.mkv
      Format  : Matroska
      Format version  : Version 4 / Version 2
      File size  : 860 MiB
      Duration  : 1h 1mn
      Overall bit rate  : 1 946 Kbps
      Movie name  : ENCODED BY SAIGON75
      Encoded date  : UTC 2014-08-01 20:16:02
      Writing application  : mkvmerge v6.0.0 ('Coming Up For Air') built on Jan 20 2013 09:52:00
      Writing library  : libebml v1.3.0 + libmatroska v1.4.0
      DURATION  : 00:00:12.993000000
      NUMBER_OF_FRAMES  : 1
      NUMBER_OF_BYTES  : 5156
      _STATISTICS_WRITING_APP  : mkvmerge v7.1.0 ('Good Love') 64bit built on Jul 27 2014 13:06:55
      _STATISTICS_WRITING_DATE_UTC  : 2014-08-01 20:00:23
      _STATISTICS_TAGS  : BPS DURATION NUMBER_OF_FRAMES NUMBER_OF_BYTES
      
      Video
      ID  : 1
      Format  : AVC
      Format/Info  : Advanced Video Codec
      Format profile  : High@L5.1
      Format settings, CABAC  : Yes
      Format settings, ReFrames  : 5 frames
      Codec ID  : V_MPEG4/ISO/AVC
      Duration  : 1h 1mn
      Bit rate  : 1 779 Kbps
      Width  : 1 280 pixels
      Height  : 720 pixels
      Display aspect ratio  : 16:9
      Frame rate mode  : Constant
      Frame rate  : 29.970 fps
      Color space  : YUV
      Chroma subsampling  : 4:2:0
      Bit depth  : 8 bits
      Scan type  : Progressive
      Bits/(Pixel*Frame)  : 0.064
      Stream size  : 786 MiB (91%)
      Title  : HanhPhucCoThat.HD720p.x264-saigon75
      Writing library  : x264 core 142 r2431 ac76440
      Encoding settings  : cabac=1 / ref=5 / deblock=1:-2:-2 / analyse=0x3:0x133 / me=hex / subme=7 / psy=1 / psy_rd=1.00:0.10 / mixed_ref=1 / me_range=16 / chroma_me=1 / trellis=1 / 8x8dct=1 / cqm=0 / deadzone=21,11 / fast_pskip=1 / chroma_qp_offset=-3 / threads=12 / lookahead_threads=2 / sliced_threads=0 / nr=0 / decimate=1 / interlaced=0 / bluray_compat=0 / constrained_intra=0 / bframes=3 / b_pyramid=2 / b_adapt=1 / b_bias=0 / direct=1 / weightb=1 / open_gop=0 / weightp=1 / keyint=300 / keyint_min=29 / scenecut=40 / intra_refresh=0 / rc_lookahead=40 / rc=crf / mbtree=1 / crf=23.0 / qcomp=0.60 / qpmin=0 / qpmax=69 / qpstep=4 / vbv_maxrate=300000 / vbv_bufsize=300000 / crf_max=0.0 / nal_hrd=none / filler=0 / ip_ratio=1.40 / aq=1:1.00
      Language  : Vietnamese
      Default  : Yes
      Forced  : No
      
      Audio
      ID  : 2
      Format  : AC-3
      Format/Info  : Audio Coding 3
      Mode extension  : CM (complete main)
      Format settings, Endianness  : Big
      Codec ID  : A_AC3
      Duration  : 1h 1mn
      Bit rate mode  : Constant
      Bit rate  : 128 Kbps
      Channel(s)  : 2 channels
      Channel positions  : Front: L R
      Sampling rate  : 48.0 KHz
      Bit depth  : 16 bits
      Compression mode  : Lossy
      Stream size  : 56.5 MiB (7%)
      Title  : HSLT_01_ENCODED BY SAIGON75
      Language  : Vietnamese
      Default  : Yes
      Forced  : No
      
      Text
      ID  : 3
      Format  : VobSub
      Muxing mode  : zlib
      Codec ID  : S_VOBSUB
      Codec ID/Info  : The same subtitle format used on DVDs
      Language  : English
      Default  : Yes
      Forced  : No
      
      








    [​IMG]

    [​IMG]



    [​IMG]

    Show Spoiler


    [​IMG]
    [​IMG]

     

Chia sẻ trang này

Từ khóa tìm kiếm từ Google :

  1. hd720 kbs New movie