1. Kết quả Event Ghost 2016


    Dưới đây là danh sách những thành viên đoạt giải thưởng trong Event Ghost 2016

Phim [FsVN - 4sVN - Lồng Tiếng] Rear Mirror 2014 HDTV 720p - Full 20 Tập - Rào Cản Tình Yêu

Thảo luận trong 'Phim HD , mHD' bắt đầu bởi gianlan123, 10 Tháng chín 2014.


  1. gianlan123

    gianlan123 Moderator Ban Quản Trị

    1,165
    559
    113
    Tên thật:
    Tèo
    Rear Mirror 2014 HDTV 720
    Rào Cản Tình Yêu
    ( Lê Diệu Tường, Tô Ngọc Hoa, Chung Cảnh Huy, Tạ Tuyết Tâm, Hàn Mã Lợi, Lý Giai Tâm... )



    [​IMG]

    Mã:
      General
      Unique ID  : 192952619716346858498174948022056063424 (0x912952A41137330FBCA61F11939711C0)
      Complete name  : F:\PHIM BO\Rào Cản Tình Yêu -Rear Mirror 2014 720p (20 Tập) (DatPhi)\TVB.Tai.Dac.Huu.Tinh.Nhan.Ep01.x264.720p.DPLT.mkv
      Format  : Matroska
      Format version  : Version 4 / Version 2
      File size  : 1.46 GiB
      Duration  : 43mn 11s
      Overall bit rate  : 4 850 Kbps
      Movie name  : [Facebook.com/PPhimPP] [TVB] Tái Đắc Hữu Tình Nhân (Rear Mirror) - Eposide 01
      Encoded date  : UTC 2014-09-05 04:18:30
      Writing application  : mkvmerge v7.1.0 ('Good Love') 64bit built on Jul 27 2014 13:06:55
      Writing library  : libebml v1.3.0 + libmatroska v1.4.1
      DURATION  : 00:41:11.474000000
      NUMBER_OF_FRAMES  : 664
      NUMBER_OF_BYTES  : 740699
      _STATISTICS_WRITING_APP  : mkvmerge v7.1.0 ('Good Love') 64bit built on Jul 27 2014 13:06:55
      _STATISTICS_WRITING_DATE_UTC  : 2014-09-05 04:18:30
      _STATISTICS_TAGS  : BPS DURATION NUMBER_OF_FRAMES NUMBER_OF_BYTES
      
      Video
      ID  : 1
      Format  : AVC
      Format/Info  : Advanced Video Codec
      Format profile  : High@L4.1
      Format settings, CABAC  : Yes
      Format settings, ReFrames  : 9 frames
      Codec ID  : V_MPEG4/ISO/AVC
      Duration  : 43mn 11s
      Bit rate  : 4 500 Kbps
      Width  : 1 280 pixels
      Height  : 720 pixels
      Display aspect ratio  : 16:9
      Frame rate mode  : Constant
      Frame rate  : 25.000 fps
      Color space  : YUV
      Chroma subsampling  : 4:2:0
      Bit depth  : 8 bits
      Scan type  : Progressive
      Bits/(Pixel*Frame)  : 0.195
      Stream size  : 1.32 GiB (90%)
      Title  : Rear Mirror 01
      Writing library  : x264 core 142 r2389+41 02cb608 tMod [8-bit@4:2:0 X86_64]
      Encoding settings  : cabac=1 / ref=9 / deblock=1:-2:-2 / analyse=0x3:0x133 / me=umh / subme=10 / psy=1 / fade_compensate=0.00 / psy_rd=1.00:0.00 / mixed_ref=1 / me_range=48 / chroma_me=1 / trellis=2 / 8x8dct=1 / cqm=0 / deadzone=21,11 / fast_pskip=0 / chroma_qp_offset=-2 / threads=12 / lookahead_threads=3 / sliced_threads=0 / nr=0 / decimate=0 / interlaced=0 / bluray_compat=0 / constrained_intra=0 / fgo=0 / bframes=12 / b_pyramid=2 / b_adapt=2 / b_bias=0 / direct=3 / weightb=1 / open_gop=0 / weightp=2 / keyint=250 / keyint_min=25 / scenecut=40 / intra_refresh=0 / rc_lookahead=60 / rc=2pass / mbtree=1 / bitrate=4500 / ratetol=1.0 / qcomp=0.60 / qpmin=0:0:0 / qpmax=69:69:69 / qpstep=4 / cplxblur=20.0 / qblur=0.5 / vbv_maxrate=50000 / vbv_bufsize=50000 / nal_hrd=none / filler=0 / ip_ratio=1.40 / aq=1:1.00 / aq-sensitivity=10.00 / aq-factor=1.00:1.00:1.00 / aq2=0 / aq3=0
      Language  : Chinese
      Default  : Yes
      Forced  : Yes
      DURATION  : 00:43:11.440000000
      NUMBER_OF_FRAMES  : 64786
      NUMBER_OF_BYTES  : 1445257020
      _STATISTICS_WRITING_APP  : mkvmerge v7.1.0 ('Good Love') 64bit built on Jul 27 2014 13:06:55
      _STATISTICS_WRITING_DATE_UTC  : 2014-09-05 04:18:30
      _STATISTICS_TAGS  : BPS DURATION NUMBER_OF_FRAMES NUMBER_OF_BYTES
      
      Audio #1
      ID  : 2
      Format  : AC-3
      Format/Info  : Audio Coding 3
      Mode extension  : CM (complete main)
      Format settings, Endianness  : Big
      Codec ID  : A_AC3
      Duration  : 43mn 11s
      Bit rate mode  : Constant
      Bit rate  : 192 Kbps
      Channel(s)  : 2 channels
      Channel positions  : Front: L R
      Sampling rate  : 48.0 KHz
      Bit depth  : 16 bits
      Compression mode  : Lossy
      Stream size  : 59.3 MiB (4%)
      Title  : P-Phim Vie
      Language  : Vietnamese
      Default  : Yes
      Forced  : Yes
      
      Audio #2
      ID  : 3
      Format  : AC-3
      Format/Info  : Audio Coding 3
      Mode extension  : CM (complete main)
      Format settings, Endianness  : Big
      Codec ID  : A_AC3
      Duration  : 43mn 11s
      Bit rate mode  : Constant
      Bit rate  : 192 Kbps
      Channel(s)  : 2 channels
      Channel positions  : Front: L R
      Sampling rate  : 48.0 KHz
      Bit depth  : 16 bits
      Compression mode  : Lossy
      Stream size  : 59.3 MiB (4%)
      Title  : 国语
      Language  : Chinese
      Default  : No
      Forced  : No
      
      Text #1
      ID  : 4
      Format  : UTF-8
      Codec ID  : S_TEXT/UTF8
      Codec ID/Info  : UTF-8 Plain Text
      Title  : 简体
      Language  : Chinese
      Default  : Yes
      Forced  : Yes
      
      Text #2
      ID  : 5
      Format  : UTF-8
      Codec ID  : S_TEXT/UTF8
      Codec ID/Info  : UTF-8 Plain Text
      Title  : 繁体
      Language  : Chinese
      Default  : No
      Forced  : No
      
      Text #3
      ID  : 6
      Format  : VobSub
      Muxing mode  : zlib
      Codec ID  : S_VOBSUB
      Codec ID/Info  : The same subtitle format used on DVDs
      Title  : 英文
      Language  : English
      Default  : No
      Forced  : No
      
      







    [​IMG]

    [​IMG]



    [​IMG]


    [​IMG]
    [​IMG]

     

Chia sẻ trang này