1. Kết quả Event Ghost 2016


    Dưới đây là danh sách những thành viên đoạt giải thưởng trong Event Ghost 2016

Phim [ FsVN - 4sVN - Thuyết Minh ] Young Sherlock 2014 720p HDTV - Thiếu Niên Thần Thám Địch Nhân Kiệt

Thảo luận trong 'Phim HD , mHD' bắt đầu bởi gianlan123, 11 Tháng chín 2014.


  1. gianlan123

    gianlan123 Moderator Ban Quản Trị

    1,162
    559
    113
    Tên thật:
    Tèo
    Young Sherlock 2014 720p HDTV
    Thiếu Niên Thần Thám Địch Nhân Kiệt
    ( Huỳnh Tông Trạch, Viên Hoằng, Mã Thiên Vũ, Thích Vi, Tôn Kiêu Kiêu, Lâm Tâm Như... )



    [​IMG]

    Mã:
      General
      Unique ID  : 198602763976407319809615624364615586241 (0x95698042B798FC328C5AF575AB60D1C1)
      Complete name  : I:\DOW Phim Bo\Thiếu Niên Thần Thám Địch Nhân Kiệt - Young Sherlock 2014 HD720p (39 Tap) (TM)\ThieuNienThanThamDichNhanKiet.Ep01.720p.mkv
      Format  : Matroska
      Format version  : Version 2
      File size  : 1.36 GiB
      Duration  : 41mn 29s
      Overall bit rate  : 4 703 Kbps
      Encoded date  : UTC 2014-08-31 15:59:15
      Writing application  : mkvmerge v6.5.0 ('Isn't she lovely') built on Oct 20 2013 12:50:05
      Writing library  : libebml v1.3.0 + libmatroska v1.4.1
      
      Video
      ID  : 1
      Format  : AVC
      Format/Info  : Advanced Video Codec
      Format profile  : High@L5.0
      Format settings, CABAC  : Yes
      Format settings, ReFrames  : 4 frames
      Codec ID  : V_MPEG4/ISO/AVC
      Duration  : 41mn 29s
      Bit rate  : 4 500 Kbps
      Width  : 1 280 pixels
      Height  : 720 pixels
      Display aspect ratio  : 16:9
      Frame rate mode  : Constant
      Frame rate  : 29.970 fps
      Color space  : YUV
      Chroma subsampling  : 4:2:0
      Bit depth  : 8 bits
      Scan type  : Progressive
      Bits/(Pixel*Frame)  : 0.163
      Stream size  : 1.28 GiB (94%)
      Writing library  : x264 core 138 r2358 9e941d1
      Encoding settings  : cabac=1 / ref=3 / deblock=1:-1:-1 / analyse=0x3:0x113 / me=hex / subme=7 / psy=1 / psy_rd=1.00:0.15 / mixed_ref=1 / me_range=16 / chroma_me=1 / trellis=1 / 8x8dct=1 / cqm=0 / deadzone=21,11 / fast_pskip=1 / chroma_qp_offset=-3 / threads=12 / lookahead_threads=2 / sliced_threads=0 / nr=0 / decimate=1 / interlaced=0 / bluray_compat=0 / constrained_intra=0 / bframes=3 / b_pyramid=2 / b_adapt=1 / b_bias=0 / direct=1 / weightb=1 / open_gop=0 / weightp=2 / keyint=300 / keyint_min=29 / scenecut=40 / intra_refresh=0 / rc_lookahead=40 / rc=abr / mbtree=1 / bitrate=4500 / ratetol=1.0 / qcomp=0.60 / qpmin=0 / qpmax=69 / qpstep=4 / vbv_maxrate=168750 / vbv_bufsize=168750 / nal_hrd=none / ip_ratio=1.40 / aq=1:1.00
      Language  : English
      Default  : Yes
      Forced  : No
      
      Audio
      ID  : 2
      Format  : AC-3
      Format/Info  : Audio Coding 3
      Mode extension  : CM (complete main)
      Format settings, Endianness  : Big
      Codec ID  : A_AC3
      Duration  : 41mn 29s
      Bit rate mode  : Constant
      Bit rate  : 192 Kbps
      Channel(s)  : 2 channels
      Channel positions  : Front: L R
      Sampling rate  : 48.0 KHz
      Bit depth  : 16 bits
      Compression mode  : Lossy
      Stream size  : 57.0 MiB (4%)
      Language  : Vietnamese
      Default  : Yes
      Forced  : No
      
      







    [​IMG]

    [​IMG]



    [​IMG]




    [​IMG]
    [​IMG]

     

Chia sẻ trang này