1. Kết quả Event Ghost 2016


    Dưới đây là danh sách những thành viên đoạt giải thưởng trong Event Ghost 2016

Ghost Rider 2 - Spirit of Vengeance - Ma Tốc Độ 2 - Linh Hồn Báo Thù 720p HDRip

Thảo luận trong 'Phim Hành Động' bắt đầu bởi khatmau_sr, 25 Tháng ba 2012.


  1. khatmau_sr

    khatmau_sr Administrator Ban Quản Trị

    10,209
    9,570
    113
    Tên thật:
    Nguyễn Đình Bách
    Ghost Rider: Spirit of Vengeance (2012) 720p HDRip AAC H264-KTH

    Ma Tốc Độ 2: Linh Hồn Báo Thù
    (Nicolas Cage)


    [​IMG]

    Mã:
    [B]Tên phim:[/B] Ghost Rider: Spirit of Vengeance (2012) 
    [B]Đạo diễn:[/B] Mark Neveldine, Brian Taylor
    [B]Kịch bản:[/B] Scott M. Gimple (screenplay), Seth Hoffman (screenplay)
    [B]Diễn viên chính:[/B] Nicolas Cage, Ciarán Hinds and Idris Elba
    [B]Thể loại:[/B] Action | Fantasy | Thriller
    [B]Đánh giá:[/B] 5.0/10 from 12,716 users
    [B]Thời lượng:[/B] 95 mins
    [B]Ngôn ngữ:[/B] English
    [B]Quốc gia:[/B] USA | United Arab Emirates
    
    [​IMG]
    Mã:
    General
    Format                           : MPEG-4
    Codec ID                         : mp42
    File size                        : 2.23 GiB
    Duration                         : 1h 35mn
    Overall bit rate                 : 3 344 Kbps
    
    
    Video
    Format                           : AVC
    Duration                         : 1h 35mn
    Bit rate                         : 3 000 Kbps
    Width                            : 1 280 pixels
    Height                           : 720 pixels
    Display aspect ratio             : 16:9
    Frame rate                       : 29.970 fps
    Scan type                        : Progressive
    Stream size                      : 2.05 GiB (92%)
    
    
    Audio
    Format                           : AAC
    Duration                         : 1h 35mn
    Bit rate                         : 128 Kbps
    Channel(s)                       : 2 channels
    Channel positions                : Front: L R
    Stream size                      : 87.5 MiB (4%)
    [​IMG]

    [​IMG] [​IMG]
    [​IMG] [​IMG]
    [​IMG] [​IMG]

    View fullscreens:
    Mã:
    [CENTER]http://www.imagebam.com/gallery/6q8y1jm69u2wdaizawwiqa6eisdp5hej/[/CENTER]

    Download: HD 720p:


    FShare.VN 1 Link:

    Download bản Rip:

    Torrent:
    Sub Việt: (chưa test)
    [DOWNBOX]Ghost Rider 2: Spirit of Vengeance (2012) 720p HDRip AAC H264-KTH[/DOWNBOX]






    Nguồn: HDVN​
     
  2. votrongsu

    votrongsu Thành Viên Cống Hiến

    176
    32
    28
    Ồ.sao nge nói t4 mới có nhỉ
    Thank bác nhé
     
  3. Người Nào Đó

    Người Nào Đó Mr. Right Ban Quản Trị

    3,680
    1,607
    113
    Tên thật:
    Nguyễn Đăng Quang
    tks a, film hay lắm
     
  4. khatmau_sr

    khatmau_sr Administrator Ban Quản Trị

    10,209
    9,570
    113
    Tên thật:
    Nguyễn Đình Bách
    Tuyệt vời, ước gì mình đc như a ấy :))
     
    root thích bài này.
  5. Người Nào Đó

    Người Nào Đó Mr. Right Ban Quản Trị

    3,680
    1,607
    113
    Tên thật:
    Nguyễn Đăng Quang
    bán cái linh hồn đi :))
     
  6. jbcloud

    jbcloud Member Chính Thức

    14
    3
    3
    sub có chuẩn hok các bro. BTW thanks
     
  7. qqwwee123

    qqwwee123 Super Moderator Ban Quản Trị

    1,520
    1,482
    113
    Tên thật:
    Nguyễn Trường
    bản này bị Hardsub tiếng Hàn, hình ảnh k đc rõ nét lắm :(
    tốn 10p cuộc đời khj load bộ này về quá
    del luôn đợi hàng chuẩn 720p và 1080p International rồi kéo :>
     
  8. khatmau_sr

    khatmau_sr Administrator Ban Quản Trị

    10,209
    9,570
    113
    Tên thật:
    Nguyễn Đình Bách
    Xem tạm cũng được, bản ngon xem sau :D
     
  9. hand210

    hand210 Member Chính Thức

    24
    2
    3
    Sao link torren 1 dung lượng mà fshare 1 dung lượng thế kia :(
     
  10. Raymond

    Raymond Member Tích Cực

    164
    91
    43
    HD 720p mà chỉ có 2.2GB thì hơi lạ . Vì 1 phim HD 720p khoảng 90' thường thường là 4.6 GB hoặc hơn ( tùy đồ họa và time ):D
     
  11. khatmau_sr

    khatmau_sr Administrator Ban Quản Trị

    10,209
    9,570
    113
    Tên thật:
    Nguyễn Đình Bách
    Chém HD chứ chắc cũng RIP tải cho nhanh :D
     
  12. Raymond

    Raymond Member Tích Cực

    164
    91
    43
    hì , ừm . chứ chờ HD gốc Bluray thì đến bao giờ =)) .

    P/S bác khatmau_sr có phim Mission Impossible 4 không ? đăng lên cho anh em tải với :>
     
  13. khatmau_sr

    khatmau_sr Administrator Ban Quản Trị

    10,209
    9,570
    113
    Tên thật:
    Nguyễn Đình Bách
    Raymond thích bài này.
  14. Raymond

    Raymond Member Tích Cực

    164
    91
    43
  15. khatmau_sr

    khatmau_sr Administrator Ban Quản Trị

    10,209
    9,570
    113
    Tên thật:
    Nguyễn Đình Bách
    Sori :D Mình thích Rip hơn vì mạng cùi :D Tải Rip cho nhanh :D
     
    Raymond thích bài này.
  16. aoe1991

    aoe1991 Quang MK

    2,782
    712
    113
    down ngay thôi, giờ nhớ lại bản 1 vẫn thấy phê. Mà bác khatmau thế nào lại làm câu sub việt chưa test thế kia chứ lại... :)) :))
    Đằng nào dạo này cũng k thấy có phim mới mấy để down, down về nhìn qua k đẹp thì xoá sau vậy. :))
     
  17. aoe1991

    aoe1991 Quang MK

    2,782
    712
    113
    khà khà, đã test, chất lượng khá là ok rồi, ngon rồi. :D :D.
    sub việt cũng chuẩn luôn. Chén thôi nào mọi người ơi.
    thank bác khatmau phát nữa. ;)
     
  18. khatmau_sr

    khatmau_sr Administrator Ban Quản Trị

    10,209
    9,570
    113
    Tên thật:
    Nguyễn Đình Bách
    Hì hì, Sub đó hơi lệch tí nhưng vẫn khá chuẩn, tóm lại là xem xong rùi, hôm nào kéo HD về cắm vào con Soni 42 inch ở nhà xem cho khoái
     
  19. namphong.vnvn

    namphong.vnvn Member Chính Thức

    11
    2
    3
  20. khatmau_sr

    khatmau_sr Administrator Ban Quản Trị

    10,209
    9,570
    113
    Tên thật:
    Nguyễn Đình Bách
    Chú k tin thì về nhà a
     

Chia sẻ trang này