Clip Hài tết 2015: Cho thuê nhà kiếm tiền

Thảo luận trong 'Clip Hài' bắt đầu bởi dvson185, 11 Tháng hai 2015.


  1. dvson185

    dvson185 Moderator Ban Quản Trị

    3,647
    4,300
    113
    Tên thật:
    Đặng Văn Sơn
    [​IMG]
    [​IMG]
    Mã:
    Format                      : MPEG-4
    Format profile              : Base Media / Version 2
    Codec ID                    : mp42
    File size                   : 1.97 GiB
    Duration                    : 1h 51mn
    Overall bit rate mode       : Variable
    Overall bit rate            : 2 520 Kbps
    Encoded date                : UTC 2014-12-10 20:01:42
    Tagged date                 : UTC 2014-12-10 20:01:42
    gsst                        : 0
    gstd                        : 6703600
    gssd                        : B71ABFD44HH1420175926900542
    gshh                        : r1---sn-8qj-nbol.googlevideo.com
    
    Video
    ID                          : 1
    Format                      : AVC
    Format/Info                 : Advanced Video Codec
    Format profile              : High@L3.1
    Format settings, CABAC      : Yes
    Format settings, ReFrames   : 1 frame
    Format settings, GOP        : M=1, N=60
    Codec ID                    : avc1
    Codec ID/Info               : Advanced Video Coding
    Duration                    : 1h 51mn
    Bit rate                    : 2 325 Kbps
    Maximum bit rate            : 4 527 Kbps
    Width                       : 1 280 pixels
    Height                      : 720 pixels
    Display aspect ratio        : 16:9
    Frame rate mode             : Constant
    Frame rate                  : 25.000 fps
    Color space                 : YUV
    Chroma subsampling          : 4:2:0
    Bit depth                   : 8 bits
    Scan type                   : Progressive
    Bits/(Pixel*Frame)          : 0.101
    Stream size                 : 1.81 GiB (92%)
    Tagged date                 : UTC 2014-12-10 20:06:05
    
    Audio
    ID                          : 2
    Format                      : AAC
    Format/Info                 : Advanced Audio Codec
    Format profile              : LC
    Codec ID                    : 40
    Duration                    : 1h 51mn
    Bit rate mode               : Variable
    Bit rate                    : 192 Kbps
    Maximum bit rate            : 201 Kbps
    Channel(s)                  : 2 channels
    Channel positions           : Front: L R
    Sampling rate               : 44.1 KHz
    Compression mode            : Lossy
    Stream size                 : 153 MiB (8%)
    Title                       : IsoMedia File Produced by Google, 5-11-2011
    Encoded date                : UTC 2014-12-10 20:04:08
    Tagged date                 : UTC 2014-12-10 20:06:05
    
     
  2. phamhongthuan

    phamhongthuan Member Tích Cực

    194
    43
    28
    tải về tết xem chơi. thanks thớt :p
     

Chia sẻ trang này