1. Hãy ủng hộ PhienBanMoi.Com bằng cách LIKE trang FANPAGE , GOOGLE+ dưới mỗi bài viết hoặc chia sẻ website nếu thấy hữu ích. Trân trọng cảm ơn!
  2. [Thông Báo] Tuyển thành viên viết bài KIẾM TIỀN trên PhienBanMoi.Com


    Nhằm mục đích phát triển Phienbanmoi.com hơn nữa, có thêm các bài viết thông tin thực sự hữu ích từ những thành viên tích cực. BQT đã quyến định tạo ra cơ hội kiếm tiền từ các bài viết được đăng tải và chia sẻ trên diễn đàn

Phim [ Hành Động ] Vice 2015 720p WEB-DL DD5.1 H264-RARBG - Ký Ức Thức Tỉnh

Thảo luận trong 'Phim HD , mHD' bắt đầu bởi gianlan123, 20 Tháng một 2015.

  1. gianlan123 Moderator

    1,703
    616
    113

    Lượt xem: 626


    Vice 2015 720p WEB-DL DD5.1 H264-RARBG
    Ký Ức Thức Tỉnh
    ( Thomas Jane, Bruce Willis, Ambyr Childers )



    [​IMG]


    Mã:
    Video
    ID                                       : 1
    Format                                   : AVC
    Format/Info                              : Advanced Video Codec
    Format profile                           : Main@L3.1
    Format settings, CABAC                   : No
    Format settings, ReFrames                : 2 frames
    Codec ID                                 : V_MPEG4/ISO/AVC
    Duration                                 : 1h 36mn
    Bit rate                                 : 4 030 Kbps
    Width                                    : 1 280 pixels
    Height                                   : 528 pixels
    Display aspect ratio                     : 2.40:1
    Frame rate mode                          : Constant
    Frame rate                               : 23.976 fps
    Color space                              : YUV
    Chroma subsampling                       : 4:2:0
    Bit depth                                : 8 bits
    Scan type                                : Progressive
    Bits/(Pixel*Frame)                       : 0.249
    Stream size                              : 2.71 GiB (89%)
    Title                                    : Vice.2015.720p.WEB-DL.DD5.1.H264-RARBG
    Language                                 : English
    Default                                  : Yes
    Forced                                   : No
    Color primaries                          : BT.709
    Transfer characteristics                 : BT.709
    Matrix coefficients                      : BT.709
    Color range                              : Limited
    
    Audio
    ID                                       : 2
    Format                                   : AC-3
    Format/Info                              : Audio Coding 3
    Mode extension                           : CM (complete main)
    Format settings, Endianness              : Big
    Codec ID                                 : A_AC3
    Duration                                 : 1h 36mn
    Bit rate mode                            : Constant
    Bit rate                                 : 384 Kbps
    Channel(s)                               : 6 channels
    Channel positions                        : Front: L C R, Side: L R, LFE
    Sampling rate                            : 48.0 KHz
    Bit depth                                : 16 bits
    Compression mode                         : Lossy
    Stream size                              : 265 MiB (9%)
    Title                                    : Vice.2015.720p.WEB-DL.DD5.1.H264-RARBG
    Language                                 : English
    Default                                  : Yes
    Forced                                   : No
    
    Text
    ID                                       : 3
    Format                                   : UTF-8
    Codec ID                                 : S_TEXT/UTF8
    Codec ID/Info                            : UTF-8 Plain Text
    Language                                 : English
    Default                                  : No
    Forced                                   : No
    
    Menu
    00:00:00.000                             : en:Chapter 1
    00:05:18.000                             : en:Chapter 2
    00:14:50.000                             : en:Chapter 3
    00:24:37.000                             : en:Chapter 4
    00:34:48.000                             : en:Chapter 5
    00:45:39.000                             : en:Chapter 6
    00:56:43.000                             : en:Chapter 7
    01:06:33.000                             : en:Chapter 8
    01:15:03.000                             : en:Chapter 9
    01:26:05.000                             : en:Chapter 10
    01:31:51.000                             : en:Chapter 11
    
    
    




    [​IMG] [​IMG] [​IMG] [​IMG] [​IMG] [​IMG]







    [​IMG]

    Show Spoiler



    [​IMG]
     

    Bình Luận Bằng Facebook

Chia sẻ trang này