1. Hãy ủng hộ PhienBanMoi.Com bằng cách LIKE trang FANPAGE , GOOGLE+ dưới mỗi bài viết hoặc chia sẻ website nếu thấy hữu ích. Trân trọng cảm ơn!
  2. [Thông Báo] Thông Báo Tuyển mod cho toàn diễn đàn


    Forum mới lập rất cần sự giúp đỡ của các bạn vậy nên bạn nào có khả năng thì đăng kí tham gia làm mod để quản lí, phát triển diễn đàn nhé!

Phim [Hardsub]_Tổng hợp Sex and Zen 720p - Nhục bồ đoàn 18+

Thảo luận trong 'Tâm Lý - Tình Cảm - Hài Hước' bắt đầu bởi dvson185, 4 Tháng hai 2015.


  1. dvson185

    dvson185 Moderator Ban Quản Trị

    3,739
    4,420
    113
    Tên thật:
    Đặng Văn Sơn
    1.Sex and Zen 1991 720p BluRay x264-aBD


    [​IMG]

    [​IMG]

    Mã:
    Phim kể về một anh chàng tuy đã có vợ nhưng vẫn mơ mộng chuyện đi tằng tịu với vợ người khác để thỏa mãn dục vọng. Nhưng khổ cái là "súng" của anh chàng khá nhỏ, ngay cả chuyện động phòng với cô vợ cũng chả làm cho ra hồn. Hàng không ngon nhưng cái ý tưởng dâm dục kia vẫn không bỏ. Trong một lần tình cờ, anh chàng đã gặp một tay trộm chuyên nghiệp cực giỏi về khinh công và bàn chuyện hợp tác đưa anh ta thâm nhập nhà nào có gái đẹp. Điểm đến của cặp bài trùng này là nhà của một thợ nhuộm vải, anh chàng cực kỳ to khỏe nhưng đối xử với vợ rất tệ. Bằng việc cắt "hàng" của mình thay thế bằng hàng
    của con ngựa, anh chàng kia đã dụ dỗ được vợ của người thợ nhuộm, không những thế còn tém luôn vợ của một viên quan. Núi này cao còn có núi khác cao hơn. Không ngờ bà vợ của viên quan kia cùng bà chị họ lại dâm dục kinh hoàng với những màn tra tấn quá sức chịu đựng. Mặt khác anh chàng thợ nhuộm sau khi mất vợ đã
    Tìm ngược lại vợ của anh chàng dâm dê xài "súng ngựa kia"…
    [​IMG]
    Mã:
    Format                      : Matroska
    Format version              : Version 4 / Version 2
    File size                   : 3.27 GiB
    Duration                    : 1h 34mn
    Overall bit rate            : 4 973 Kbps
    Encoded date                : UTC 2015-02-03 13:56:43
    Writing application         : mkvmerge v7.5.0 ('Glass Culture') 64bit built on Jan  4 2015 16:48:44
    Writing library             : libebml v1.3.1 + libmatroska v1.4.2
    DURATION                    : 01:32:38.000000000
    NUMBER_OF_FRAMES            : 777
    NUMBER_OF_BYTES             : 28357
    _STATISTICS_WRITING_APP     : mkvmerge v7.5.0 ('Glass Culture') 64bit built on Jan  4 2015 16:48:44
    _STATISTICS_WRITING_DATE_UT : 2015-02-03 13:56:43
    _STATISTICS_TAGS            : BPS DURATION NUMBER_OF_FRAMES NUMBER_OF_BYTES
    
    Video
    ID                          : 1
    Format                      : AVC
    Format/Info                 : Advanced Video Codec
    Format profile              : High@L4.1
    Format settings, CABAC      : Yes
    Format settings, ReFrames   : 5 frames
    Codec ID                    : V_MPEG4/ISO/AVC
    Duration                    : 1h 34mn
    Bit rate                    : 4 333 Kbps
    Width                       : 1 280 pixels
    Height                      : 688 pixels
    Display aspect ratio        : 1.85:1
    Frame rate mode             : Constant
    Frame rate                  : 23.976 fps
    Color space                 : YUV
    Chroma subsampling          : 4:2:0
    Bit depth                   : 8 bits
    Scan type                   : Progressive
    Bits/(Pixel*Frame)          : 0.205
    Stream size                 : 2.78 GiB (85%)
    Writing library             : x264 core 115 r1937 aa21558
    
    Language                    : Chinese
    Default                     : Yes
    Forced                      : Yes
    
    Audio
    ID                          : 2
    Format                      : AC-3
    Format/Info                 : Audio Coding 3
    Mode extension              : CM (complete main)
    Format settings, Endianness : Big
    Codec ID                    : A_AC3
    Duration                    : 1h 34mn
    Bit rate mode               : Constant
    Bit rate                    : 640 Kbps
    Channel(s)                  : 6 channels
    Channel positions           : Front: L C R, Side: L R, LFE
    Sampling rate               : 48.0 KHz
    Bit depth                   : 16 bits
    Compression mode            : Lossy
    Stream size                 : 431 MiB (13%)
    Language                    : Chinese
    Default                     : Yes
    Forced                      : Yes
    
    [​IMG]

    [​IMG]
    [​IMG]

    [​IMG]


    2.Sex and Zen II 1996 BluRay 720p AC3 x264-CHD


    [​IMG]

    [​IMG]
    [​IMG]
    Mã:
    Format                      : Matroska
    Format version              : Version 4 / Version 2
    File size                   : 4.36 GiB
    Duration                    : 1h 28mn
    Overall bit rate            : 7 039 Kbps
    Encoded date                : UTC 2015-02-03 14:36:30
    Writing application         : mkvmerge v7.5.0 ('Glass Culture') 64bit built on Jan  4 2015 16:48:44
    Writing library             : libebml v1.3.1 + libmatroska v1.4.2
    DURATION                    : 01:27:09.715000000
    NUMBER_OF_FRAMES            : 1122
    NUMBER_OF_BYTES             : 41421
    _STATISTICS_WRITING_APP     : mkvmerge v7.5.0 ('Glass Culture') 64bit built on Jan  4 2015 16:48:44
    _STATISTICS_WRITING_DATE_UT : 2015-02-03 14:36:30
    _STATISTICS_TAGS            : BPS DURATION NUMBER_OF_FRAMES NUMBER_OF_BYTES
    
    Video
    ID                          : 1
    Format                      : AVC
    Format/Info                 : Advanced Video Codec
    Format profile              : High@L4.1
    Format settings, CABAC      : Yes
    Format settings, ReFrames   : 9 frames
    Codec ID                    : V_MPEG4/ISO/AVC
    Duration                    : 1h 28mn
    Bit rate                    : 6 269 Kbps
    Width                       : 1 280 pixels
    Height                      : 720 pixels
    Display aspect ratio        : 16:9
    Frame rate mode             : Constant
    Frame rate                  : 24.000 fps
    Color space                 : YUV
    Chroma subsampling          : 4:2:0
    Bit depth                   : 8 bits
    Scan type                   : Progressive
    Bits/(Pixel*Frame)          : 0.283
    Stream size                 : 3.79 GiB (87%)
    Title                       : Sex.and.Zen.II.1996
    Writing library             : x264 core 116 r2074 2641b9e
    Encoding settings           : cabac=1 / ref=9 / deblock=1:-3:-3 / analyse=0x3:0x113 / me=umh / subme=10 / psy=1 / psy_rd=1.00:0.05 / mixed_ref=1 / me_range=32 / chroma_me=1 / trellis=2 / 8x8dct=1 / cqm=0 / deadzone=21,11 / fast_pskip=0 / chroma_qp_offset=-2 / threads=8 / sliced_threads=0 / nr=0 / decimate=1 / interlaced=0 / bluray_compat=0 / constrained_intra=0 / bframes=6 / b_pyramid=2 / b_adapt=2 / b_bias=0 / direct=3 / weightb=1 / open_gop=0 / weightp=2 / keyint=250 / keyint_min=24 / scenecut=40 / intra_refresh=0 / rc_lookahead=50 / rc=2pass / mbtree=1 / bitrate=6269 / ratetol=1.0 / qcomp=0.70 / qpmin=0 / qpmax=69 / qpstep=4 / cplxblur=20.0 / qblur=0.5 / vbv_maxrate=40000 / vbv_bufsize=30000 / nal_hrd=none / ip_ratio=1.40 / aq=2:0.90
    Language                    : Chinese
    Default                     : No
    Forced                      : No
    DURATION                    : 01:28:34.575000000
    NUMBER_OF_FRAMES            : 127550
    NUMBER_OF_BYTES             : 4164804817
    _STATISTICS_WRITING_APP     : mkvmerge v7.5.0 ('Glass Culture') 64bit built on Jan  4 2015 16:48:44
    _STATISTICS_WRITING_DATE_UT : 2015-02-03 14:36:30
    _STATISTICS_TAGS            : BPS DURATION NUMBER_OF_FRAMES NUMBER_OF_BYTES
    
    Audio #1
    ID                          : 2
    Format                      : AC-3
    Format/Info                 : Audio Coding 3
    Mode extension              : CM (complete main)
    Format settings, Endianness : Big
    Codec ID                    : A_AC3
    Duration                    : 1h 28mn
    Bit rate mode               : Constant
    Bit rate                    : 384 Kbps
    Channel(s)                  : 2 channels
    Channel positions           : Front: L R
    Sampling rate               : 48.0 KHz
    Bit depth                   : 16 bits
    Compression mode            : Lossy
    Stream size                 : 243 MiB (5%)
    Title                       : DD.2.0 384K Mandarin
    Language                    : Chinese
    Default                     : Yes
    Forced                      : No
    
    Audio #2
    ID                          : 3
    Format                      : AC-3
    Format/Info                 : Audio Coding 3
    Mode extension              : CM (complete main)
    Format settings, Endianness : Big
    Codec ID                    : A_AC3
    Duration                    : 1h 28mn
    Bit rate mode               : Constant
    Bit rate                    : 384 Kbps
    Channel(s)                  : 2 channels
    Channel positions           : Front: L R
    Sampling rate               : 48.0 KHz
    Bit depth                   : 16 bits
    Compression mode            : Lossy
    Stream size                 : 243 MiB (5%)
    Title                       : DD.2.0 384K cantonese
    Language                    : Chinese
    Default                     : No
    Forced                      : No
    
    [​IMG]



    [​IMG]
    [​IMG]
    [​IMG]


    3.Sex and Zen III 1998 NTSC DVD5
    [​IMG]

    [​IMG]
    [​IMG]
    Mã:
    Format                      : Matroska
    Format version              : Version 4 / Version 2
    File size                   : 3.45 GiB
    Duration                    : 1h 39mn
    Overall bit rate mode       : Variable
    Overall bit rate            : 4 965 Kbps
    Encoded date                : UTC 2015-02-03 14:58:37
    Writing application         : mkvmerge v7.5.0 ('Glass Culture') 64bit built on Jan  4 2015 16:48:44
    Writing library             : libebml v1.3.1 + libmatroska v1.4.2
    DURATION                    : 01:38:17.180000000
    NUMBER_OF_FRAMES            : 1377
    NUMBER_OF_BYTES             : 39741
    _STATISTICS_WRITING_APP     : mkvmerge v7.5.0 ('Glass Culture') 64bit built on Jan  4 2015 16:48:44
    _STATISTICS_WRITING_DATE_UT : 2015-02-03 14:58:37
    _STATISTICS_TAGS            : BPS DURATION NUMBER_OF_FRAMES NUMBER_OF_BYTES
    
    Video
    ID                          : 1
    Format                      : MPEG Video
    Format version              : Version 2
    Format profile              : Main@Main
    Format settings, BVOP       : Yes
    Format settings, Matrix     : Default
    Format settings, GOP        : M=3, N=13
    Codec ID                    : V_MPEG2
    Codec ID/Info               : MPEG 1 or 2 Video
    Bit rate mode               : Variable
    Bit rate                    : 4 610 Kbps
    Maximum bit rate            : 9 000 Kbps
    Width                       : 720 pixels
    Height                      : 480 pixels
    Display aspect ratio        : 4:3
    Frame rate mode             : Variable
    Original frame rate         : 29.970 fps
    Standard                    : NTSC
    Color space                 : YUV
    Chroma subsampling          : 4:2:0
    Bit depth                   : 8 bits
    Scan type                   : Progressive
    Compression mode            : Lossy
    Time code of first frame    : 01:01:10:03
    Time code source            : Group of pictures header
    GOP, Open/Closed            : Open
    Default                     : Yes
    Forced                      : No
    Color primaries             : BT.601 PAL
    Transfer characteristics    : BT.470 System B, BT.470 System G
    Matrix coefficients         : BT.601
    
    Audio
    ID                          : 2
    Format                      : AC-3
    Format/Info                 : Audio Coding 3
    Mode extension              : CM (complete main)
    Format settings, Endianness : Big
    Codec ID                    : A_AC3
    Duration                    : 1h 39mn
    Bit rate mode               : Constant
    Bit rate                    : 256 Kbps
    Channel(s)                  : 2 channels
    Channel positions           : Front: L R
    Sampling rate               : 48.0 KHz
    Bit depth                   : 16 bits
    Compression mode            : Lossy
    Stream size                 : 182 MiB (5%)
    Default                     : Yes
    Forced                      : No
    
    [​IMG]


    [​IMG]
    [​IMG]
    [​IMG]
    4.Sex and Zen: Extreme Ecstasy 2011 720p Director's Cut BluRay x264 AC3-HDChina

    [​IMG]

    [​IMG]
    [​IMG]
    Mã:
    Format                      : Matroska
    Format version              : Version 2
    File size                   : 6.56 GiB
    Duration                    : 2h 8mn
    Overall bit rate            : 7 327 Kbps
    Encoded date                : UTC 2011-09-17 11:18:46
    Writing application         : mkvmerge v4.0.0 ('The Stars were mine') built on Jun  6 2010 16:18:42
    Writing library             : libebml v1.0.0 + libmatroska v1.0.0
    
    Video
    ID                          : 1
    Format                      : AVC
    Format/Info                 : Advanced Video Codec
    Format profile              : High@L4.1
    Format settings, CABAC      : Yes
    Format settings, ReFrames   : 9 frames
    Codec ID                    : V_MPEG4/ISO/AVC
    Duration                    : 2h 8mn
    Bit rate                    : 6 688 Kbps
    Width                       : 1 280 pixels
    Height                      : 720 pixels
    Display aspect ratio        : 16:9
    Frame rate mode             : Constant
    Frame rate                  : 23.976 fps
    Color space                 : YUV
    Chroma subsampling          : 4:2:0
    Bit depth                   : 8 bits
    Scan type                   : Progressive
    Bits/(Pixel*Frame)          : 0.303
    Stream size                 : 5.85 GiB (89%)
    Writing library             : x264 core 116 r2074 2641b9e
    Encoding settings           : cabac=1 / ref=9 / deblock=1:-3:-3 / analyse=0x3:0x133 / me=umh / subme=10 / psy=1 / psy_rd=0.95:0.05 / mixed_ref=1 / me_range=48 / chroma_me=1 / trellis=2 / 8x8dct=1 / cqm=0 / deadzone=21,11 / fast_pskip=0 / chroma_qp_offset=-3 / threads=9 / sliced_threads=0 / nr=0 / decimate=0 / interlaced=0 / bluray_compat=0 / constrained_intra=0 / bframes=6 / b_pyramid=2 / b_adapt=2 / b_bias=0 / direct=3 / weightb=1 / open_gop=0 / weightp=2 / keyint=360 / keyint_min=2 / scenecut=40 / intra_refresh=0 / rc_lookahead=60 / rc=2pass / mbtree=1 / bitrate=6688 / ratetol=1.0 / qcomp=0.70 / qpmin=0 / qpmax=69 / qpstep=4 / cplxblur=20.0 / qblur=0.5 / vbv_maxrate=50000 / vbv_bufsize=30000 / nal_hrd=none / ip_ratio=1.40 / aq=2:1.00
    Default                     : No
    Forced                      : No
    
    Audio
    ID                          : 2
    Format                      : AC-3
    Format/Info                 : Audio Coding 3
    Mode extension              : CM (complete main)
    Format settings, Endianness : Big
    Codec ID                    : A_AC3
    Duration                    : 2h 8mn
    Bit rate mode               : Constant
    Bit rate                    : 640 Kbps
    Channel(s)                  : 6 channels
    Channel positions           : Front: L C R, Side: L R, LFE
    Sampling rate               : 48.0 KHz
    Bit depth                   : 16 bits
    Compression mode            : Lossy
    Stream size                 : 587 MiB (9%)
    Language                    : English
    Default                     : Yes
    Forced                      : No
    
    [​IMG]


    [​IMG]

    [​IMG]
    [​IMG]
    [​IMG]
    [​IMG]
    [​IMG]
    [​IMG]
    [​IMG]
    [​IMG]
    [​IMG]
    [​IMG]
    [​IMG]
    [​IMG][​IMG]
    [​IMG]
    [​IMG]
    [​IMG]
    [​IMG]


    [​IMG]

    [​IMG]





     
  2. quocanh6296

    quocanh6296 Member Tích Cực

    131
    36
    28
    Tên thật:
    Vũ Việt Hà
  3. khaaa

    khaaa Member Chính Thức

    44
    6
    8
    colection cho bác nào FA sưu tập
     
  4. Cuongneu201x

    Cuongneu201x Member Danh Tiếng

    589
    225
    43
    Dù ko FA thì cũng xem lấy thêm kinh nghiệm :sexy_girl:
     
  5. nova_vn

    nova_vn Member Tích Cực

    164
    15
    18
    có xxx là like rooiu:adore:
     
  6. tuanthanhnt

    tuanthanhnt Member Chính Thức

    70
    8
    8
    Rất khoái thể loại này....:haha:
     
  7. huyhoang92nd

    huyhoang92nd Member Chính Thức

    28
    3
    3
    Bác chủ chịu khó sưu tầm thể loại này ghê, em thích :beauty:
     
    phienbanmoi2013 thích bài này.
  8. khaaa

    khaaa Member Chính Thức

    44
    6
    8
    Khoảng 50% kinh nghiệm trong phim là cũng đủ tuyển thêm 2 bồ nhí rồi
     
  9. ghedalua

    ghedalua Member Chính Thức

    44
    7
    8
    không có link 4share ajk :(
     

Chia sẻ trang này

Từ khóa tìm kiếm từ Google :

  1. lam yến

    ,
  2. phim nhuc bo doan

    ,
  3. phim xxxx and zen

    ,
  4. Phim sex and zen 2,
  5. phim sex tao bao nhuc,
  6. phim 18 moi nhat