1. Hãy ủng hộ PhienBanMoi.Com bằng cách LIKE trang FANPAGE , GOOGLE+ dưới mỗi bài viết hoặc chia sẻ website nếu thấy hữu ích. Trân trọng cảm ơn!
  2. [Thông Báo] Tuyển thành viên viết bài KIẾM TIỀN trên PhienBanMoi.Com


    Nhằm mục đích phát triển Phienbanmoi.com hơn nữa, có thêm các bài viết thông tin thực sự hữu ích từ những thành viên tích cực. BQT đã quyến định tạo ra cơ hội kiếm tiền từ các bài viết được đăng tải và chia sẻ trên diễn đàn

Phim [HOT] Chàng Trai Năm Ấy 2014 Full 720p

Thảo luận trong 'Phim Lẻ' bắt đầu bởi #kulee@, 27 Tháng một 2015.

  1. #kulee@ Moderator

    89
    156
    93

    Lượt xem: 1,613


    Chàng Trai Năm Ấy 2014 Full 720p

    [​IMG]


    Mã:
    General
    Complete name                    : E:Kulee\DMT2\Chang.Trai.Nam.Ay.2015.mp4
    Format                           : MPEG-4
    Format profile                   : Base Media
    Codec ID                         : isom
    File size                        : 4.70 GiB
    Duration                         : 1h 54mn
    Overall bit rate                 : 5 854 Kbps
    
    Video
    ID                               : 1
    Format                           : MPEG-4 Visual
    Format profile                   : Simple@L1
    Format settings, BVOP            : No
    Format settings, QPel            : No
    Format settings, GMC             : No warppoints
    Format settings, Matrix          : Default (H.263)
    Codec ID                         : 20
    Duration                         : 1h 54mn
    Bit rate mode                    : Variable
    Bit rate                         : 5 767 Kbps
    Width                            : 1 280 pixels
    Height                           : 720 pixels
    Display aspect ratio             : 16:9
    Frame rate mode                  : Constant
    Frame rate                       : 29.970 fps
    Color space                      : YUV
    Chroma subsampling               : 4:2:0
    Bit depth                        : 8 bits
    Scan type                        : Progressive
    Compression mode                 : Lossy
    Bits/(Pixel*Frame)               : 0.209
    Stream size                      : 4.62 GiB (98%)
    
    Audio
    ID                               : 2
    Format                           : AAC
    Format/Info                      : Advanced Audio Codec
    Format profile                   : LC
    Codec ID                         : 40
    Duration                         : 1h 54mn
    Bit rate mode                    : Variable
    Bit rate                         : 82.1 Kbps
    Channel(s)                       : 2 channels
    Channel positions                : Front: L R
    Sampling rate                    : 44.1 KHz
    Compression mode                 : Lossy
    Stream size                      : 67.4 MiB (1%)




    DOWNLOAD
    Show Spoiler


    [​IMG]
     

    Bình Luận Bằng Facebook

  2. lê thanh giảng

    lê thanh giảng Moderator Ban Quản Trị

    356
    127
    43
    chàng trai năm ấy mà lại có để mai tính nữa nhể
     
  3. lamvanhau

    lamvanhau Moderator

    1,041
    378
    83
    up lên youtube đi.
     
  4. cvchien

    cvchien Member Chính Thức

    14
    2
    3
    hay quá ha. đang định xem rạp đây
     
  5. #kulee@

    #kulee@ Moderator Ban Quản Trị

    89
    156
    93
    Đag up youtube nhé bạn :D
     
    lamvanhau thích bài này.
  6. lamvanhau

    lamvanhau Moderator

    1,041
    378
    83
    up xong cho xin link xem.
     
  7. GP_QuangMinh

    GP_QuangMinh Member Mới

    1
    0
    1
    bản này đâu phải 720p đâu thớt :/
     

Chia sẻ trang này