1. Hãy ủng hộ PhienBanMoi.Com bằng cách LIKE trang FANPAGE , GOOGLE+ dưới mỗi bài viết hoặc chia sẻ website nếu thấy hữu ích. Trân trọng cảm ơn!
  2. [Thông Báo] Tuyển thành viên viết bài KIẾM TIỀN trên PhienBanMoi.Com


    Nhằm mục đích phát triển Phienbanmoi.com hơn nữa, có thêm các bài viết thông tin thực sự hữu ích từ những thành viên tích cực. BQT đã quyến định tạo ra cơ hội kiếm tiền từ các bài viết được đăng tải và chia sẻ trên diễn đàn

Phim Power Rangers 2017 1080p WEB-DL DD5.1 H264-FGT - 5 anh em siêu nhân

Thảo luận trong 'Phim Lẻ' bắt đầu bởi gianlan123, 13 Tháng sáu 2017.

Tags:
  1. gianlan123 Moderator

    1,566
    597
    113

    Lượt xem: 1,824


    Power Rangers 2017 1080p WEB-DL DD5.1 H264-FGT



    [​IMG]



    Mã:
    Video
    ID                                       : 1
    Format                                   : AVC
    Format/Info                              : Advanced Video Codec
    Format profile                           : High@L4
    Format settings, CABAC                   : Yes
    Format settings, ReFrames                : 5 frames
    Codec ID                                 : V_MPEG4/ISO/AVC
    Duration                                 : 2 h 3 min
    Bit rate                                 : 4 661 kb/s
    Width                                    : 1 912 pixels
    Height                                   : 792 pixels
    Display aspect ratio                     : 2.40:1
    Frame rate mode                          : Constant
    Frame rate                               : 23.976 FPS
    Color space                              : YUV
    Chroma subsampling                       : 4:2:0
    Bit depth                                : 8 bits
    Scan type                                : Progressive
    Bits/(Pixel*Frame)                       : 0.128
    Stream size                              : 4.04 GiB (92%)
    Title                                    : Power.Rangers.2017.1080p.WEB-DL.DD5.1.H264-FGT
    Language                                 : English
    Default                                  : Yes
    Forced                                   : No
    Color range                              : Limited
    Color primaries                          : BT.709
    Transfer characteristics                 : BT.709
    Matrix coefficients                      : BT.709
    
    Audio
    ID                                       : 2
    Format                                   : AC-3
    Format/Info                              : Audio Coding 3
    Format settings, Endianness              : Big
    Codec ID                                 : A_AC3
    Duration                                 : 2 h 3 min
    Bit rate mode                            : Constant
    Bit rate                                 : 384 kb/s
    Channel(s)                               : 6 channels
    Channel positions                        : Front: L C R, Side: L R, LFE
    Sampling rate                            : 48.0 kHz
    Frame rate                               : 31.250 FPS (1536 spf)
    Bit depth                                : 16 bits
    Compression mode                         : Lossy
    Stream size                              : 340 MiB (8%)
    Title                                    : Power.Rangers.2017.1080p.WEB-DL.DD5.1.H264-FGT
    Language                                 : English
    Service kind                             : Complete Main
    Default                                  : Yes
    Forced                                   : No
    
    Text
    ID                                       : 3
    Format                                   : UTF-8
    Codec ID                                 : S_TEXT/UTF8
    Codec ID/Info                            : UTF-8 Plain Text
    Duration                                 : 1 h 50 min
    Bit rate                                 : 1 b/s
    Count of elements                        : 36
    Stream size                              : 1 008 Bytes (0%)
    Title                                    : FORCED
    Language                                 : English
    Default                                  : Yes
    Forced                                   : Yes
    
    Menu
    00:00:00.000                             : en:1
    00:05:14.000                             : en:2
    00:16:05.000                             : en:3
    00:27:34.000                             : en:4
    00:36:42.000                             : en:5
    00:46:41.000                             : en:6
    00:59:18.000                             : en:7
    01:08:10.000                             : en:8
    01:19:01.000                             : en:9
    01:30:45.000                             : en:10
    01:40:43.000                             : en:11
    01:53:19.000                             : en:12
    
    
    
    
    



    Là biểu tượng gắn liền với tuổi thơ của nhiều thế hệ 8X – 9X ở Mỹ cũng như Việt Nam, NĂM ANH EM SIÊU NHÂN là bộ phim kể về 5 thiếu niên được lựa chọn để trao cho sức mạnh đặc biệt và trở thành các chiến binh bảo vệ Trái đất, cùng nhau chống lại các thế lực bóng tối đến từ hành tinh khác.




     
  2. Nguyen Manh QUyen

    Nguyen Manh QUyen Member Mới

    2
    0
    1

Chia sẻ trang này