1. Hãy ủng hộ PhienBanMoi.Com bằng cách LIKE trang FANPAGE , GOOGLE+ dưới mỗi bài viết hoặc chia sẻ website nếu thấy hữu ích. Trân trọng cảm ơn!
  2. [Thông Báo] Thông Báo Tuyển mod cho toàn diễn đàn


    Forum mới lập rất cần sự giúp đỡ của các bạn vậy nên bạn nào có khả năng thì đăng kí tham gia làm mod để quản lí, phát triển diễn đàn nhé!

Phim Sex and the Single Girl 1964 1080p WEBRip DD2.0.x264-SbR ~ Tình Dục Và Cô Gái Độc Thân

Thảo luận trong 'Phim Lẻ' bắt đầu bởi gianlan123, 20 Tháng năm 2017.

  1. gianlan123 Moderator

    1,566
    597
    113

    Lượt xem: 978


    Sex and the Single Girl 1964 1080p WEBRip DD2.0.x264-SbR


    [​IMG]



    Mã:
    Video
    ID                                       : 1
    Format                                   : AVC
    Format/Info                              : Advanced Video Codec
    Format profile                           : High@L4
    Format settings, CABAC                   : Yes
    Format settings, ReFrames                : 4 frames
    Codec ID                                 : V_MPEG4/ISO/AVC
    Duration                                 : 1h 54mn
    Bit rate mode                            : Variable
    Bit rate                                 : 12.6 Mbps
    Maximum bit rate                         : 15.0 Mbps
    Width                                    : 1 920 pixels
    Height                                   : 1 080 pixels
    Display aspect ratio                     : 16:9
    Frame rate mode                          : Constant
    Frame rate                               : 23.976 (24000/1001) fps
    Color space                              : YUV
    Chroma subsampling                       : 4:2:0
    Bit depth                                : 8 bits
    Scan type                                : Progressive
    Bits/(Pixel*Frame)                       : 0.254
    Stream size                              : 10.1 GiB (98%)
    Writing library                          : x264 core 148 r2623 d5b2374
    Encoding settings                        : cabac=1 / ref=4 / deblock=1:-1:-1 / analyse=0x3:0x133 / me=umh / subme=9 / psy=1 / psy_rd=1.00:0.15 / mixed_ref=1 / me_range=24 / chroma_me=1 / trellis=2 / 8x8dct=1 / cqm=0 / deadzone=21,11 / fast_pskip=1 / chroma_qp_offset=-3 / threads=34 / lookahead_threads=5 / sliced_threads=0 / nr=150 / decimate=1 / interlaced=0 / bluray_compat=0 / constrained_intra=0 / bframes=8 / b_pyramid=2 / b_adapt=2 / b_bias=0 / direct=3 / weightb=1 / open_gop=0 / weightp=2 / keyint=120 / keyint_min=61 / scenecut=0 / intra_refresh=0 / rc_lookahead=120 / rc=crf / mbtree=1 / crf=18.0 / qcomp=0.60 / qpmin=0 / qpmax=69 / qpstep=4 / vbv_maxrate=15000 / vbv_bufsize=31250 / crf_max=0.0 / nal_hrd=vbr / filler=0 / ip_ratio=1.40 / aq=3:1.00
    Language                                 : English
    Default                                  : Yes
    Forced                                   : No
    Color range                              : Limited
    Color primaries                          : BT.709
    Transfer characteristics                 : BT.709
    Matrix coefficients                      : BT.709
    
    Audio
    ID                                       : 2
    Format                                   : E-AC-3
    Format/Info                              : Audio Coding 3
    Format settings, Endianness              : Big
    Codec ID                                 : A_EAC3
    Duration                                 : 1h 54mn
    Bit rate mode                            : Constant
    Bit rate                                 : 224 Kbps
    Channel(s)                               : 2 channels
    Channel positions                        : Front: L R
    Sampling rate                            : 48.0 KHz
    Frame rate                               : 187.500 fps (256 spf)
    Compression mode                         : Lossy
    Stream size                              : 183 MiB (2%)
    Language                                 : English
    Default                                  : Yes
    Forced                                   : No
    
    Text #1
    ID                                       : 3
    Format                                   : UTF-8
    Codec ID                                 : S_TEXT/UTF8
    Codec ID/Info                            : UTF-8 Plain Text
    Duration                                 : 1h 50mn
    Bit rate                                 : 82 bps
    Count of elements                        : 1916
    Stream size                              : 67.3 KiB (0%)
    Language                                 : English
    Default                                  : No
    Forced                                   : No
    
    Text #2
    ID                                       : 4
    Format                                   : UTF-8
    Codec ID                                 : S_TEXT/UTF8
    Codec ID/Info                            : UTF-8 Plain Text
    Duration                                 : 1h 53mn
    Bit rate                                 : 84 bps
    Count of elements                        : 2070
    Stream size                              : 70.4 KiB (0%)
    Title                                    : SDH
    Language                                 : English
    Default                                  : No
    Forced                                   : No
    
    
    
    
    



    Using Helen Gurley Brown's book as a jump off point| we follow the adventures of a supermarket tabloid editor as he tries to parlay an interview with the author of
    the book into headlines and sales. Of course| a romantic entanglement ensues.





     

Chia sẻ trang này

Từ khóa tìm kiếm từ Google :

  1. phim sex 1080l