1. Hãy ủng hộ PhienBanMoi.Com bằng cách LIKE trang FANPAGE , GOOGLE+ dưới mỗi bài viết hoặc chia sẻ website nếu thấy hữu ích. Trân trọng cảm ơn!
  2. [Thông Báo] Thông Báo Tuyển mod cho toàn diễn đàn


    Forum mới lập rất cần sự giúp đỡ của các bạn vậy nên bạn nào có khả năng thì đăng kí tham gia làm mod để quản lí, phát triển diễn đàn nhé!

Tổng hợp DVD và Video Clip của ca sĩ Mạnh Quỳnh

Thảo luận trong 'CD nhạc' bắt đầu bởi dvson185, 13 Tháng hai 2015.


  1. dvson185

    dvson185 Moderator Ban Quản Trị

    3,809
    4,546
    113
    Tên thật:
    Đặng Văn Sơn
    [​IMG]
    Mã:
    Format : MPEG-4
    Format profile : Base Media
    Codec ID : isom
    File size : 116 MiB
    Duration : 6mn 10s
    Overall bit rate mode : Constant
    Overall bit rate : 2 630 Kbps
    Writing application : Lavf54.59.106
    
    Video
    ID : 1
    Format : MPEG-4 Visual
    Format profile : Simple@L1
    Format settings, BVOP : No
    Format settings, QPel : No
    Format settings, GMC : No warppoints
    Format settings, Matrix : Default (H.263)
    Codec ID : 20
    Duration : 6mn 10s
    Bit rate mode : Constant
    Bit rate : 2 495 Kbps
    Width : 720 pixels
    Height : 480 pixels
    Display aspect ratio : 3:2
    Frame rate mode : Constant
    Frame rate : 29.970 fps
    Standard : NTSC
    Color space : YUV
    Chroma subsampling : 4:2:0
    Bit depth : 8 bits
    Scan type : Progressive
    Compression mode : Lossy
    Bits/(Pixel*Frame) : 0.241
    Stream size : 110 MiB (95%)
    Writing library : Lavc54.86.100
    
    Audio
    ID : 2
    Format : AAC
    Format/Info : Advanced Audio Codec
    Format profile : LC
    Codec ID : 40
    Duration : 6mn 10s
    Bit rate mode : Constant
    Bit rate : 128 Kbps
    Channel count : 2 channels
    Channel positions : Front: L R
    Sampling rate : 44.1 KHz
    Compression mode : Lossy
    Stream size : 5.66 MiB (5%)
    [​IMG]
     

Chia sẻ trang này