• Hãy ủng hộ PhienBanMoi.Com bằng cách LIKE trang FANPAGE , GOOGLE+ dưới mỗi bài viết hoặc chia sẻ website nếu thấy hữu ích. Trân trọng cảm ơn!
  • [Thông Báo] Tuyển thành viên viết bài KIẾM TIỀN trên PhienBanMoi.Com


    Nhằm mục đích phát triển Phienbanmoi.com hơn nữa, có thêm các bài viết thông tin thực sự hữu ích từ những thành viên tích cực. BQT đã quyến định tạo ra cơ hội kiếm tiền từ các bài viết được đăng tải và chia sẻ trên diễn đàn

Phim A Cat In Paris 2010 1080p BluRay x264-BRMP | Chú Mèo Ở Paris

gianlan123

Moderator
Thành viên BQT
Tham gia
13/10/12
Bài viết
2,087
Thích
881
#1
A Cat In Paris 2010 1080p BluRay x264-BRMP

Chú Mèo Ở Paris ~ Sub Việt





Mã:
[mediainfo]
Video
ID                                       : 1
Format                                   : AVC
Format/Info                              : Advanced Video Codec
Format profile                           : High@L4.1
Format settings, CABAC                   : Yes
Format settings, ReFrames                : 4 frames
Codec ID                                 : V_MPEG4/ISO/AVC
Duration                                 : 1h 4mn
Bit rate                                 : 8 192 Kbps
Width                                    : 1 920 pixels
Height                                   : 1 048 pixels
Display aspect ratio                     : 1.85:1
Frame rate mode                          : Constant
Frame rate                               : 23.976 (24000/1001) fps
Color space                              : YUV
Chroma subsampling                       : 4:2:0
Bit depth                                : 8 bits
Scan type                                : Progressive
Bits/(Pixel*Frame)                       : 0.170
Stream size                              : 3.60 GiB (82%)
Writing library                          : x264 core 128 r2216 198a7ea
Encoding settings                        : cabac=1 / ref=4 / deblock=1:0:0 / analyse=0x3:0x133 / me=umh / subme=7 / psy=1 / psy_rd=1.00:0.00 / mixed_ref=1 / me_range=16 / chroma_me=1 / trellis=1 / 8x8dct=1 / cqm=0 / deadzone=21,11 / fast_pskip=0 / chroma_qp_offset=-2 / threads=12 / lookahead_threads=2 / sliced_threads=0 / nr=0 / decimate=1 / interlaced=0 / bluray_compat=0 / constrained_intra=0 / bframes=3 / b_pyramid=2 / b_adapt=1 / b_bias=0 / direct=1 / weightb=1 / open_gop=0 / weightp=2 / keyint=240 / keyint_min=23 / scenecut=40 / intra_refresh=0 / rc_lookahead=40 / rc=2pass / mbtree=1 / bitrate=8192 / ratetol=1.0 / qcomp=0.60 / qpmin=0 / qpmax=69 / qpstep=4 / cplxblur=20.0 / qblur=0.5 / ip_ratio=1.40 / aq=1:1.00
Language                                 : English
Default                                  : Yes
Forced                                   : No

Audio
ID                                       : 2
Format                                   : DTS
Format/Info                              : Digital Theater Systems
Mode                                     : 16
Format settings, Endianness              : Big
Codec ID                                 : A_DTS
Duration                                 : 1h 4mn
Bit rate mode                            : Constant
Bit rate                                 : 1 509 Kbps
Channel(s)                               : 6 channels
Channel positions                        : Front: L C R, Side: L R, LFE
Sampling rate                            : 48.0 KHz
Frame rate                               : 93.750 fps (512 spf)
Bit depth                                : 24 bits
Compression mode                         : Lossy
Stream size                              : 697 MiB (16%)
Language                                 : English
Default                                  : Yes
Forced                                   : No

Text
ID                                       : 3
Format                                   : UTF-8
Codec ID                                 : S_TEXT/UTF8
Codec ID/Info                            : UTF-8 Plain Text
Language                                 : English
Default                                  : Yes
Forced                                   : No



[/mediainfo]


Nội Dung : Bộ phim Pháp này có tên tiếng Anh là A cat in Paris. Đây là tác phẩm hoạt hình do Alain Gagnol, Jean-Loup Felicioli đạo diễn, ra mắt năm 2010. Trong 62 phút phim, độc giả dõi theo cuộc sống của Dino, chú mèo có 2 cuộc sống bí mật. Ban ngày, chú sống với Zoé, con gái của Jeanne, nữ cảnh sát trưởng. Ban đêm, chú leo trèo trên các nóc nhà ở Paris cùng với tên trộm Nico. Bộ phim được đánh giá là "đẹp gần như hoàn hảo!".











Link FShare.vn


Link 4Share.vn


Link Subscene.Com


+ KHO GAME PC , PHIM HD , GHOST , SOFTWARE ĐỒ SỘ NHẤT VIỆT NAM
-----
+ KHO PHIM HD CẬP NHẬT LIÊN TỤC
-----
+ KHO GAME PC CẬP NHẬT LIÊN TỤC
-----
+ KHO GHOST + WINDOW + SOFTWARE CẬP NHẬT LIÊN TỤC
-----
+ KHO NHẠC, LOSSLESS CẬP NHẬT LIÊN TỤC