• Hãy ủng hộ PhienBanMoi.Com bằng cách LIKE trang FANPAGE , GOOGLE+ dưới mỗi bài viết hoặc chia sẻ website nếu thấy hữu ích. Trân trọng cảm ơn!
  • [Thông Báo] Tuyển thành viên viết bài KIẾM TIỀN trên PhienBanMoi.Com


    Nhằm mục đích phát triển Phienbanmoi.com hơn nữa, có thêm các bài viết thông tin thực sự hữu ích từ những thành viên tích cực. BQT đã quyến định tạo ra cơ hội kiếm tiền từ các bài viết được đăng tải và chia sẻ trên diễn đàn

Angel Karaoke-The Best Of Phi Nhung 1

dvson185

Moderator
Thành viên BQT
Tham gia
17/4/14
Bài viết
3,807
Thích
4,820
Nơi ở
Hà Nội
#1



Mã:
Format                                   : MPEG-4
Format profile                           : Base Media
Codec ID                                 : isom
File size                                : 945 MiB
Duration                                 : 1h 34mn
Overall bit rate                         : 1 397 Kbps
Encoded date                             : UTC 2013-02-12 07:30:27
Tagged date                              : UTC 2013-02-12 07:30:27

Video
ID                                       : 2
Format                                   : MPEG-4 Visual
Format profile                           : Simple@L3
Format settings, BVOP                    : No
Format settings, QPel                    : No
Format settings, GMC                     : No warppoints
Format settings, Matrix                  : Default (H.263)
Codec ID                                 : 20
Duration                                 : 1h 34mn
Bit rate mode                            : Constant
Bit rate                                 : 1 262 Kbps
Width                                    : 1 280 pixels
Height                                   : 720 pixels
Display aspect ratio                     : 16:9
Frame rate mode                          : Constant
Frame rate                               : 29.970 fps
Original frame rate                      : 29.000 fps
Color space                              : YUV
Chroma subsampling                       : 4:2:0
Bit depth                                : 8 bits
Scan type                                : Progressive
Compression mode                         : Lossy
Bits/(Pixel*Frame)                       : 0.046
Stream size                              : 854 MiB (90%)
Writing library                          : XviD 1.2.1 (UTC 2008-12-04)
Language                                 : English

Audio
ID                                       : 1
Format                                   : AAC
Format/Info                              : Advanced Audio Codec
Format profile                           : LC
Codec ID                                 : 40
Duration                                 : 1h 34mn
Bit rate mode                            : Constant
Bit rate                                 : 128 Kbps
Channel(s)                               : 2 channels
Channel positions                        : Front: L R
Sampling rate                            : 44.1 KHz
Compression mode                         : Lossy
Stream size                              : 86.6 MiB (9%)
Language                                 : English
 

huubinh_93

Member Tích Cực
Tham gia
5/8/13
Bài viết
206
Thích
18
#2
có của Trường Vũ, Đan Nguyên ko bác, hay quá !
 

huubinh_93

Member Tích Cực
Tham gia
5/8/13
Bài viết
206
Thích
18
#4
cảm ơn bạn, hy vọng là trước tết, mình tải về cho ba mẹ mình, vì 2 người rất thích Trường Vũ và Phi Nhung :D
 

Bài xem nhiều

Chia sẻ kiến thức - Download phần mềm