• Hãy ủng hộ PhienBanMoi.Com bằng cách LIKE trang FANPAGE , GOOGLE+ dưới mỗi bài viết hoặc chia sẻ website nếu thấy hữu ích. Trân trọng cảm ơn!
  • [Thông Báo] Tuyển thành viên viết bài KIẾM TIỀN trên PhienBanMoi.Com


    Nhằm mục đích phát triển Phienbanmoi.com hơn nữa, có thêm các bài viết thông tin thực sự hữu ích từ những thành viên tích cực. BQT đã quyến định tạo ra cơ hội kiếm tiền từ các bài viết được đăng tải và chia sẻ trên diễn đàn

Phim Asia 79 - Còn Mãi Trong Tim - Love is Forever 2017 NTSC

leanhkyhg

Member Danh Tiếng
Tham gia
20/4/12
Bài viết
992
Thích
77
#1







Format : MPEG-PS
File size : 1 024 MiB
Duration : 16 min
Overall bit rate mode : Variable
Overall bit rate : 8 689 kb/s

Video
ID : 224 (0xE0)
Format : MPEG Video
Format version : Version 2
Format profile : Main@Main
Format settings, BVOP : Yes
Format settings, Matrix : Default
Format settings, GOP : M=3, N=15
Duration : 16 min
Bit rate mode : Variable
Bit rate : 8 324 kb/s
Maximum bit rate : 9 000 kb/s
Width : 720 pixels
Height : 480 pixels
Display aspect ratio : 16:9
Frame rate : 29.970 (30000/1001) FPS
Standard : NTSC
Color space : YUV
Chroma subsampling : 4:2:0
Bit depth : 8 bits
Scan type : Progressive
Compression mode : Lossy
Bits/(Pixel*Frame) : 0.804
Time code of first frame : 00:00:00;00
Time code source : Group of pictures header
GOP, Open/Closed : Open
GOP, Open/Closed of first frame : Closed
Stream size : 981 MiB (96%)

Audio
ID : 189 (0xBD)-128 (0x80)
Format : AC-3
Format/Info : Audio Coding 3
Mode extension : CM (complete main)
Format settings, Endianness : Big
Muxing mode : DVD-Video
Duration : 16 min
Bit rate mode : Constant
Bit rate : 192 kb/s
Channel(s) : 2 channels
Channel positions : Front: L R
Sampling rate : 48.0 kHz
Frame rate : 31.250 FPS (1536 spf)
Compression mode : Lossy
Stream size : 22.6 MiB (2%)

Mã:
01 - LK Anh Bằng : Khúc Thụy Du, Kỳ Diệu, Anh Còn Nợ Em, Tango Tím, Mai Tôi Đi - Thế Sơn, Lâm Thúy Vân, Gia Huy, Anh Tuấn, Dạ Nhật Yến, Bích Vân, Y Phương, Hoàng Anh Thư, Diễm Liên
02 - Hai Chuyến Tàu Đêm - Thanh Thúy
03 - LK : Nửa Đêm Ngoài Phố, Tôi Trở Về Thành Phố - Nhật Lâm, Đặng Thế Luân, Bảo Khánh
04 - LK Hoàng Thi Thơ : Con Tim và Nước Mắt - Mai Lệ Huyền, Xây Nhà Bên Suối - Ngọc Anh Vi, Jaydon Phạm
05 - Sầu Lẻ Bóng - Hoàng Oanh
06 - LK : Đêm Buồn, Một Lần Cuối, Xin Hãy Quên Tôi - Thế Sơn, Diễm Liên
07 - Đêm Vũ Trường - Lâm Thúy Vân
08 - Tình Hậu Phương - Phương Hồng Quế, Trang Thanh Lan
09 - Em Thề Chỉ Có Anh Thôi - Dạ Nhật Yến
10 - Mênh Mông Tình Buồn - Khánh Hà
11 - Mưa Chiều - Y Phương
12 - Mùa Đã Sang Rồi Em Có Hay - Đặng Thế Luân
13 - Tâm Tình Gửi Huế - Thanh Thúy, Hoàng Oanh
14 - LK : Bài Thánh Ca Buồn , Nhớ Một Chiều Xuân - Anh Tuấn, Bích Vân
15 - Chiều Cuối Tuần - Tuấn Vũ
16 - Mong Telephone Anh - Cát Lynh, Lê Quốc Tuấn
17 - LK : Tình Vào Thu, Dấu Chân Tình Nhân - Trịnh Nam Sơn, Thanh Trúc
18 - Lời Khẩn Cầu Vụng Dại, Nhật Ký Hai Đứa Mình - Nga My, Bảo Khánh
19 - Tình Yêu Đã Hết Rồi - Ánh Minh
20 - Mời Em Về - Hoàng Anh Thư
21 - Lời Kinh Đêm, Kinh Khổ - Gia Huy, Diễm Liên, Y Phương
22 - Từ Lúc Em Đi - Triệu Minh
23 - Hận Tình - Nguyễn Thắng
25 - Trở Về Cát Bụi - Hợp Ca
 

Bài xem nhiều

Chia sẻ kiến thức - Download phần mềm