• Hãy ủng hộ PhienBanMoi.Com bằng cách LIKE trang FANPAGE , GOOGLE+ dưới mỗi bài viết hoặc chia sẻ website nếu thấy hữu ích. Trân trọng cảm ơn!
  • [Thông Báo] Tuyển thành viên viết bài KIẾM TIỀN trên PhienBanMoi.Com


    Nhằm mục đích phát triển Phienbanmoi.com hơn nữa, có thêm các bài viết thông tin thực sự hữu ích từ những thành viên tích cực. BQT đã quyến định tạo ra cơ hội kiếm tiền từ các bài viết được đăng tải và chia sẻ trên diễn đàn

Phim Big Hero 6 2014 1080p BluRay x264-SPARKS - Biệt đội big hero

dvson185

Moderator
Thành viên BQT
Tham gia
17/4/14
Bài viết
3,808
Thích
4,821
Nơi ở
Hà Nội
#1



http://www.imdb.com/title/tt2245084


Mã:
Format                      : Matroska
Format version              : Version 4 / Version 2
File size                   : 5.46 GiB
Duration                    : 1h 41mn
Overall bit rate            : 7 676 Kbps
Encoded date                : UTC 2015-02-04 22:16:34
Writing application         : mkvmerge v6.2.0 ('Promised Land') built on Apr 28 2013 12:22:01
Writing library             : libebml v1.3.0 + libmatroska v1.4.0

Video
ID                          : 1
Format                      : AVC
Format/Info                 : Advanced Video Codec
Format profile              : High@L4.1
Format settings, CABAC      : Yes
Format settings, ReFrames   : 5 frames
Codec ID                    : V_MPEG4/ISO/AVC
Duration                    : 1h 41mn
Bit rate                    : 6 165 Kbps
Width                       : 1 920 pixels
Height                      : 808 pixels
Display aspect ratio        : 2.40:1
Frame rate mode             : Constant
Frame rate                  : 23.976 fps
Color space                 : YUV
Chroma subsampling          : 4:2:0
Bit depth                   : 8 bits
Scan type                   : Progressive
Bits/(Pixel*Frame)          : 0.166
Stream size                 : 4.28 GiB (78%)
Writing library             : x264 core 144 r2525 40bb568
Encoding settings           : cabac=1 / ref=5 / deblock=1:0:0 / analyse=0x3:0x133 / me=umh / subme=7 / psy=1 / psy_rd=1.00:0.00 / mixed_ref=1 / me_range=16 / chroma_me=1 / trellis=1 / 8x8dct=1 / cqm=0 / deadzone=21,11 / fast_pskip=0 / chroma_qp_offset=-2 / threads=18 / lookahead_threads=3 / sliced_threads=0 / nr=0 / decimate=1 / interlaced=0 / bluray_compat=0 / constrained_intra=0 / bframes=3 / b_pyramid=2 / b_adapt=1 / b_bias=0 / direct=1 / weightb=1 / open_gop=0 / weightp=2 / keyint=250 / keyint_min=23 / scenecut=40 / intra_refresh=0 / rc_lookahead=40 / rc=2pass / mbtree=1 / bitrate=6165 / ratetol=1.0 / qcomp=0.60 / qpmin=0 / qpmax=69 / qpstep=4 / cplxblur=20.0 / qblur=0.5 / ip_ratio=1.40 / aq=1:1.00
Language                    : English
Default                     : Yes
Forced                      : No

Audio
ID                          : 2
Format                      : DTS
Format/Info                 : Digital Theater Systems
Mode                        : 16
Format settings, Endianness : Big
Codec ID                    : A_DTS
Duration                    : 1h 41mn
Bit rate mode               : Constant
Bit rate                    : 1 509 Kbps
Channel(s)                  : 6 channels
Channel positions           : Front: L C R, Side: L R, LFE
Sampling rate               : 48.0 KHz
Bit depth                   : 24 bits
Compression mode            : Lossy
Stream size                 : 1.07 GiB (20%)
Language                    : English
Default                     : Yes
Forced                      : No









 

huyhoang92nd

Member Chính Thức
Tham gia
5/11/13
Bài viết
28
Thích
3
#2
chờ mãi cuối cùng cũng có bản đẹp, thanks bác
 

hiencute

Member Chính Thức
Tham gia
23/9/14
Bài viết
9
Thích
1
#4
cho mình hỏi đây là phần 6 hay là tên phim như thế nếu là phần 6 thì có phần 54321 k? Giờ mới biết phim này thank!
 

namidth

Member Chính Thức
Tham gia
12/9/14
Bài viết
40
Thích
3
#5
cho mình hỏi đây là phần 6 hay là tên phim như thế nếu là phần 6 thì có phần 54321 k? Giờ mới biết phim này thank!
6 tức là biệt đội có 6 người đó bạn :3
 

BK Pro

Member Chính Thức
Tham gia
15/8/13
Bài viết
34
Thích
6
#7
Làm Sao Để Chuyển Cái Này Sang Hardsub Nhỉ? :smile:
 

dvson185

Moderator
Thành viên BQT
Tham gia
17/4/14
Bài viết
3,808
Thích
4,821
Nơi ở
Hà Nội
#10

Bài xem nhiều

Chia sẻ kiến thức - Download phần mềm