• Hãy ủng hộ PhienBanMoi.Com bằng cách LIKE trang FANPAGE , GOOGLE+ dưới mỗi bài viết hoặc chia sẻ website nếu thấy hữu ích. Trân trọng cảm ơn!
  • [Thông Báo] Tuyển thành viên viết bài KIẾM TIỀN trên PhienBanMoi.Com


    Nhằm mục đích phát triển Phienbanmoi.com hơn nữa, có thêm các bài viết thông tin thực sự hữu ích từ những thành viên tích cực. BQT đã quyến định tạo ra cơ hội kiếm tiền từ các bài viết được đăng tải và chia sẻ trên diễn đàn

Ca Nhạc - Liên khúc mùa xuân 2015 - chọn lọc ca khúc sôi động

dvson185

Moderator
Thành viên BQT
Tham gia
17/4/14
Bài viết
3,809
Thích
4,554
Nơi ở
Hà Nội
#1

Mã:
Format                      : MPEG-PS
File size                   : 2.87 GiB
Duration                    : 58mn 5s
Overall bit rate mode       : Variable
Overall bit rate            : 7 077 Kbps

Video
ID                          : 224 (0xE0)
Format                      : MPEG Video
Format version              : Version 2
Format profile              : Main@Main
Format settings, BVOP       : Yes
Format settings, Matrix     : Custom
Format settings, GOP        : Variable
Format settings, picture st : Frame
Duration                    : 58mn 5s
Bit rate mode               : Variable
Bit rate                    : 6 744 Kbps
Maximum bit rate            : 8 000 Kbps
Width                       : 720 pixels
Height                      : 480 pixels
Display aspect ratio        : 16:9
Frame rate                  : 29.970 fps
Standard                    : NTSC
Color space                 : YUV
Chroma subsampling          : 4:2:0
Bit depth                   : 8 bits
Scan type                   : Interlaced
Scan order                  : Top Field First
Compression mode            : Lossy
Bits/(Pixel*Frame)          : 0.651
Time code of first frame    : 01:00:00;00
Time code source            : Group of pictures header
GOP, Open/Closed            : Closed
Stream size                 : 2.74 GiB (95%)
Color primaries             : BT.601 NTSC
Transfer characteristics    : BT.601
Matrix coefficients         : BT.601

Audio
ID                          : 189 (0xBD)-128 (0x80)
Format                      : AC-3
Format/Info                 : Audio Coding 3
Mode extension              : CM (complete main)
Format settings, Endianness : Big
Muxing mode                 : DVD-Video
Duration                    : 58mn 5s
Bit rate mode               : Constant
Bit rate                    : 192 Kbps
Channel(s)                  : 2 channels
Channel positions           : Front: L R
Sampling rate               : 48.0 KHz
Bit depth                   : 16 bits
Compression mode            : Lossy
Delay relative to video     : 64ms
Stream size                 : 79.8 MiB (3%)
Mã:
1.    Liên Khúc: Cánh Bướm Vườn Xuân, Xuân Yêu Thương - Hà Thanh Xuân, Ngọc Anh Vi
2.    Liên Khúc: Đám Cưới Đầu Xuân, Mùa Xuân Lá Khô - Trúc Mi, Nhật Lâm
3. Liên Khúc: Đón Xuân Này Nhớ Xuân Xưa, Cánh Thiệp Đầu Xuân, Câu Chuyện Đầu Năm - Đan Nguyên, Băng Tâm, Hoàng Thục Linh
4.    Liên Khúc: Đồn Vắng Chiều Xuân, Phút Giao Mùa - Ngọc Huyền, Đăng Vũ
5.    Liên Khúc: Ca Khúc Mừng Xuân, Chúc Xuân - Hồng Diễm, Thiên Kim
6.    Liên Khúc: Chiều Xuân, Khúc Nhạc Mừng Xuân - Lâm Thúy Vân, Diễm Liên
7.    Liên Khúc: Xuân Đã Về, Mừng Nắng Xuân Về - Mỹ Huyền, Hoàng Anh Thư
8.    Liên Khúc: Hoa Cỏ Mùa Xuân, Anh Cho Em Mùa Xuân - Nguyễn Hồng Nhung, Sỹ Đan
9.    Liên Khúc: Mùa Xuân Của Mẹ, Rước Xuân Về Nhà - Đặng Thế Luân, Hoàng Thục Linh, Quốc Khanh
10.    Liên Khúc: Điệp Khúc Mùa Xuân, Mùa Xuân Trong Đôi Mắt Em - Hồ Hoàng Yến, Lê Anh Quân
11.    Liên Khúc: Thì Thầm Mùa Xuân, Bên Em Mùa Xuân - Cát Lynh, Đoàn Phi
12.    Liên Khúc: Xuân Ca, Xuân Họp Mặt, Xuân Nghệ Sĩ Hành Khúc - Hợp Ca Asia
 

Bài xem nhiều

Chia sẻ kiến thức - Download phần mềm