• Hãy ủng hộ PhienBanMoi.Com bằng cách LIKE trang FANPAGE , GOOGLE+ dưới mỗi bài viết hoặc chia sẻ website nếu thấy hữu ích. Trân trọng cảm ơn!
  • [Thông Báo] Tuyển thành viên viết bài KIẾM TIỀN trên PhienBanMoi.Com


    Nhằm mục đích phát triển Phienbanmoi.com hơn nữa, có thêm các bài viết thông tin thực sự hữu ích từ những thành viên tích cực. BQT đã quyến định tạo ra cơ hội kiếm tiền từ các bài viết được đăng tải và chia sẻ trên diễn đàn

Phim Đại Gia Chân Đất 5 2015 PAL DVDRip AC3 x264-AlphaHD

dvson185

Moderator
Thành viên BQT
Tham gia
17/4/14
Bài viết
3,840
Thích
4,624
Nơi ở
Hà Nội
#1


Mã:
Ngay từ đầu tháng 10, đạo diễn Trần Bình Trọng đã khởi quay đĩa hài “Đại gia chân đất” tết 2015, đĩa hài này là sự tiếp nối nội dung của các năm trước với các đĩa “Đại gia chân đất” phần 1, phần 2, phần 3.
Theo đó, căn nhà đã được hai ông "đại gia" Sự và Tích đầu tư, tu sửa trở thành một "biệt phủ" với mong muốn thu hút khách du lịch. Với mục đích kinh doanh du lịch, đại gia Văn Tích đã hóa thân thành bức tượng thánh Tích hòng chiếm được lòng tin và thu nhận đồ cúng từ phía khách du lịch. Tuy nhiên, vì chưa chuẩn bị kỹ nên thánh Tích có tạo hình khá hài hước: Diện triều phục với đầy đủ mũ mão, cân đai nhưng lại đi... tông.
Đặc biệt nhất, năm nay, hai "đại gia" không chỉ kinh doanh du lịch, mà còn đầu tư hẳn… trực thăng và siêu du đò. Thông tin, hài tết “Đại gia chân đất” 2015 năm nay có sự xuất hiện của một chiếc trực thăng khiến nhiều khán giả thích thú.
Chiếc trực thăng được đặt tên hài hước: Chuyên cơ Văn Tích với số hiệu 39000 (Ba vạn chín nghìn) hứa hẹn nhiều tình huống đặc biệt. Vẫn như mọi năm, tạo hình chính của hai ông Tích và Sự là hai "Đại gia nửa mùa", học làm sang. Ông Tích vẫn tìm mọi cách để "đục khoét" tiền của ông Sự. Hai nhân vật chính vẫn không thể chừa được tật hám gái. Thậm chí, bà vợ ông Sự còn phải chạy vạy để tìm "trại cai gái" cho chồng. Bộ phim sẽ hứa hẹn nhiều tình huống gây cười đặc sắc.

Mã:
Format                      : Matroska
Format version              : Version 4 / Version 2
File size                   : 2.14 GiB
Duration                    : 2h 25mn
Overall bit rate            : 2 107 Kbps
Encoded date                : UTC 2015-02-03 10:57:11
Writing application         : mkvmerge v7.5.0 ('Glass Culture') 64bit built on Jan  4 2015 16:48:44
Writing library             : libebml v1.3.1 + libmatroska v1.4.2

Video
ID                          : 1
Format                      : AVC
Format/Info                 : Advanced Video Codec
Format profile              : High@L3.1
Format settings, CABAC      : Yes
Format settings, ReFrames   : 11 frames
Codec ID                    : V_MPEG4/ISO/AVC
Duration                    : 2h 25mn
Bit rate                    : 1 681 Kbps
Width                       : 700 pixels
Height                      : 576 pixels
Display aspect ratio        : 1.215
Frame rate mode             : Constant
Frame rate                  : 25.000 fps
Color space                 : YUV
Chroma subsampling          : 4:2:0
Bit depth                   : 8 bits
Scan type                   : Progressive
Bits/(Pixel*Frame)          : 0.167
Stream size                 : 1.71 GiB (80%)
Writing library             : x264 core 142 r2431 ac76440
Encoding settings           : cabac=1 / ref=11 / deblock=1:-3:-3 / analyse=0x3:0x133 / me=umh / subme=11 / psy=1 / psy_rd=0.90:0.00 / mixed_ref=1 / me_range=24 / chroma_me=1 / trellis=2 / 8x8dct=1 / cqm=0 / deadzone=21,11 / fast_pskip=0 / chroma_qp_offset=-2 / threads=6 / lookahead_threads=1 / sliced_threads=0 / nr=0 / decimate=0 / interlaced=0 / bluray_compat=0 / constrained_intra=0 / bframes=10 / b_pyramid=2 / b_adapt=2 / b_bias=0 / direct=3 / weightb=1 / open_gop=0 / weightp=2 / keyint=250 / keyint_min=25 / scenecut=40 / intra_refresh=0 / rc=crf / mbtree=0 / crf=20.5 / qcomp=0.70 / qpmin=0 / qpmax=69 / qpstep=4 / ip_ratio=1.40 / pb_ratio=1.30 / aq=1:0.75
Language                    : English
Default                     : Yes
Forced                      : No

Audio
ID                          : 2
Format                      : AC-3
Format/Info                 : Audio Coding 3
Mode extension              : CM (complete main)
Format settings, Endianness : Big
Codec ID                    : A_AC3
Duration                    : 2h 25mn
Bit rate mode               : Constant
Bit rate                    : 384 Kbps
Channel(s)                  : 2 channels
Channel positions           : Front: L R
Sampling rate               : 48.0 KHz
Bit depth                   : 16 bits
Compression mode            : Lossy
Stream size                 : 399 MiB (18%)
Language                    : Vietnamese
Default                     : Yes
Forced                      : No






 

Bài xem nhiều

Chia sẻ kiến thức - Download phần mềm