• Hãy ủng hộ PhienBanMoi.Com bằng cách LIKE trang FANPAGE , GOOGLE+ dưới mỗi bài viết hoặc chia sẻ website nếu thấy hữu ích. Trân trọng cảm ơn!
  • [Thông Báo] Tuyển thành viên viết bài KIẾM TIỀN trên PhienBanMoi.Com


    Nhằm mục đích phát triển Phienbanmoi.com hơn nữa, có thêm các bài viết thông tin thực sự hữu ích từ những thành viên tích cực. BQT đã quyến định tạo ra cơ hội kiếm tiền từ các bài viết được đăng tải và chia sẻ trên diễn đàn

Phim Để Mai Tính 2 Full 720p 2014

#kulee@

Moderator
Thành viên BQT
HoaHong
0
#1
[Hài Tết] Để Mai Tính 2 720p 2014





Mã:
General
Complete name                    : C:\Users\Kulee\Desktop\DMT2\De.Mai.Tinh.2-De.Mai.Hoi.Tinh.2015.mp4
Format                           : MPEG-4
Format profile                   : Base Media
Codec ID                         : isom
[URL="http://tech24h.vn/#"][U][B]File[U][B][IMG]http://cdncache1-a.akamaihd.net/items/it/img/arrow-10x10.png[/IMG][/B][/U][/B][/U][/URL] size                        : 3.90 GiB
Duration                         : 1h 35mn
Overall bit rate                 : 5 865 Kbps


Video
ID                               : 1
Format                           : MPEG-4 Visual
Format profile                   : Simple@L1
Format settings, BVOP            : No
Format settings, QPel            : No
Format settings, GMC             : No warppoints
Format settings, Matrix          : Default (H.263)
Codec ID                         : 20
Duration                         : 1h 35mn
Bit rate mode                    : Variable
Bit rate                         : 5 781 Kbps
Width                            : 1 280 pixels
Height                           : 720 pixels
Display aspect ratio             : 16:9
Frame rate mode                  : Constant
Frame rate                       : 29.970 fps
Color space                      : YUV
Chroma subsampling               : 4:2:0
Bit depth                        : 8 bits
[URL="http://tech24h.vn/#"][U][B]Scan[U][B][IMG]http://cdncache1-a.akamaihd.net/items/it/img/arrow-10x10.png[/IMG][/B][/U][/B][/U][/URL] type                        : Progressive
Compression mode                 : Lossy
Bits/(Pixel*Frame)               : 0.209
Stream size                      : 3.84 GiB (99%)


Audio
ID                               : 2
Format                           : AAC
Format/Info                      : Advanced Audio Codec
Format profile                   : LC
Codec ID                         : 40
Duration                         : 1h 35mn
Bit rate mode                    : Variable
Bit rate                         : 80.9 Kbps
Channel(s)                       : 2 channels
Channel positions                : Front: L R
Sampling rate                    : 44.1 KHz
Compression mode                 : Lossy
Stream size                      : 55.1 MiB (1%)

Để Mai Tính 2 (tựa cũ ĐỂ HỘI TÍNH 2) Bốn năm sau khi chia tay với Dũng và Mai, Phạm Hương Hội trở thành một doanh nhân thành đạt. Hội về Việt Nam đểxây dựng một trung tâm mua sắm khổng lồ. Vừa xuống sân bay, cơ duyên lại đem đến cho Hội cơ hội gặp được tình yêu mà bấy lâu Hội mong ước. Thế nhưng, số phận lại đùa giỡn thêm một lần khi buộc Hội phải chọn giữa tình yêu trong mơ và sự nghiệp. Đối tượng của Hội lần này là Nam - một chàng họa sĩ phong trần đã có người yêu: Thư Lê . Phim Để Mai Tính 2 là một bộ phim hài tốt, một câu chuyện đơn giản thể hiện bởi những tình tiết kỹ lưỡng, chặt chẽ, những góc quay chỉn chu, những pha hài hước tràn ngập phim và dàn diễn viên chất lượng, trẻ trung xinh đẹp. Lần trở lại này của chị Hội – Thái Hòa chắc chắn sẽ lại khiến cho khán giả ùn ùn kéo nhau ra rạp trong mùa Giáng Sinh và Tết Tây sắp tới. Những ngày nghỉ lễ cuối năm, thư giản giải trí bằng phim hài là chuẩn nhất


DOWNLOAD
Coment + Thank để Lấy Link


4SHARE
 

khoakute466

Member Chính Thức
HoaHong
0
#11
[Hài Tết] Để Mai Tính 2 720p 2014





Mã:
General
Complete name                    : C:\Users\Kulee\Desktop\DMT2\De.Mai.Tinh.2-De.Mai.Hoi.Tinh.2015.mp4
Format                           : MPEG-4
Format profile                   : Base Media
Codec ID                         : isom
[URL="http://tech24h.vn/#"][U][B]File[U][B][IMG]http://cdncache1-a.akamaihd.net/items/it/img/arrow-10x10.png[/IMG][/B][/U][/B][/U][/URL] size                        : 3.90 GiB
Duration                         : 1h 35mn
Overall bit rate                 : 5 865 Kbps


Video
ID                               : 1
Format                           : MPEG-4 Visual
Format profile                   : Simple@L1
Format settings, BVOP            : No
Format settings, QPel            : No
Format settings, GMC             : No warppoints
Format settings, Matrix          : Default (H.263)
Codec ID                         : 20
Duration                         : 1h 35mn
Bit rate mode                    : Variable
Bit rate                         : 5 781 Kbps
Width                            : 1 280 pixels
Height                           : 720 pixels
Display aspect ratio             : 16:9
Frame rate mode                  : Constant
Frame rate                       : 29.970 fps
Color space                      : YUV
Chroma subsampling               : 4:2:0
Bit depth                        : 8 bits
[URL="http://tech24h.vn/#"][U][B]Scan[U][B][IMG]http://cdncache1-a.akamaihd.net/items/it/img/arrow-10x10.png[/IMG][/B][/U][/B][/U][/URL] type                        : Progressive
Compression mode                 : Lossy
Bits/(Pixel*Frame)               : 0.209
Stream size                      : 3.84 GiB (99%)


Audio
ID                               : 2
Format                           : AAC
Format/Info                      : Advanced Audio Codec
Format profile                   : LC
Codec ID                         : 40
Duration                         : 1h 35mn
Bit rate mode                    : Variable
Bit rate                         : 80.9 Kbps
Channel(s)                       : 2 channels
Channel positions                : Front: L R
Sampling rate                    : 44.1 KHz
Compression mode                 : Lossy
Stream size                      : 55.1 MiB (1%)





DOWNLOAD
Coment + Thank để Lấy Link




4SHARE

xin link di thớt
 

Bài xem nhiều