• Hãy ủng hộ PhienBanMoi.Com bằng cách LIKE trang FANPAGE , GOOGLE+ dưới mỗi bài viết hoặc chia sẻ website nếu thấy hữu ích. Trân trọng cảm ơn!
  • [Thông Báo] Tuyển thành viên viết bài KIẾM TIỀN trên PhienBanMoi.Com


    Nhằm mục đích phát triển Phienbanmoi.com hơn nữa, có thêm các bài viết thông tin thực sự hữu ích từ những thành viên tích cực. BQT đã quyến định tạo ra cơ hội kiếm tiền từ các bài viết được đăng tải và chia sẻ trên diễn đàn

[Fshare] X-Men: Days Of Future Past - X-Men: Ngày Cũ Của Tương Lai (2014) 720p HDCAM x264

Chupanhdao

Member Tích Cực
Tham gia
22/2/14
Bài viết
153
Thích
85
#1

[Hành Động | Phiêu Lưu | Khoa Học & Viễn Tưởng]
X-Men: Days Of Future Past - X-Men: Ngày Cũ Của Tương Lai (2014)
(Hugh Jackman, Jennifer Lawrence, James McAvoy, Michael Fassbender, Halle Berry, Nicholas Hoult)
720p HDCAM x264




Thể loại: Hành động, Khoa học viễn tưởng, Kịch tính, Phiêu lưu
Diễn viên: Hugh Jackman, Jennifer Lawrence, James McAvoy, Michael Fassbender, Halle Berry, Nicholas Hoult, Patrick Stewart, Ian McKellen
Đạo diễn: Bryan Singer
Độ dài: 131 phút
Hãng Sản Xuất: Twentieth Century Fox Film Corporation, Marvel Entertainment, Dune Entertainment
Nội dung:
Nhóm người đột biến gửi Người sói (Wolverine) về quá khứ trong một nỗ lực tuyệt vọng để thay đổi lịch sử và ngăn chặn một sự kiện mà kết quả của nó có thể gây diệt vong cho cả người thường và người đột biến.

Trailer



Tin tức liên quan
X-men: Days of future past vượt qua Avatar
Siêu phẩm 'X-men: Days of future past' - Cơn bừng tỉnh của gã hippy
"X-Men: Days of Future Past" khó phá kỷ lục vì vướng Godzilla
Xem "X-Men: Days of Future Past": Đúng nghĩa phim bom tấn
'X-Men: Days of Future Past' mở màn với gần 300 triệu USD
'X-Men: Days of Future Past' thỏa lòng mong đợi của fan
X Men: Days of Future Past Tương lai bắt đầu từ quá khứ
“X-Men: Days of Future Past” mở màn với doanh thu “khủng”
'X-Men: Days of future past' - Xứng đáng bom tấn mùa hè
X-men: Ngày cũ của tương lai: vượt qua nỗi đau để mạnh mẽ hơn
'X-Men: Days of Future Past': Siêu phẩm đỉnh nhất về các dị nhân
7 điều cần nhớ trước khi xem phần mới nhất "X-Men"
91% khán giả đánh giá X-Men phần mới "rất đáng xem"
Tại sao phải phát sốt với X-Men: Ngày cũ của tương lai?

Screenshot


Mã:
Format  : MPEG-4
Format profile  : Base Media
Codec ID  : isom
File size  : 1.66 GiB
Duration  : 1h 48mn
Overall bit rate  : 2 200 Kbps
Encoded date  : UTC 2014-05-25 07:10:23
Tagged date  : UTC 2014-05-25 07:10:23

Video
ID  : 2
Format  : AVC
Format/Info  : Advanced Video Codec
Format profile  : Baseline@L3.0
Format settings, CABAC  : No
Format settings, ReFrames  : 1 frame
Format settings, GOP  : M=1, N=25
Muxing mode  : Container profile=Baseline@4.1
Codec ID  : avc1
Codec ID/Info  : Advanced Video Coding
Duration  : 1h 48mn
Bit rate  : 2 067 Kbps
Width  : 1 280 pixels
Height  : 720 pixels
Display aspect ratio  : 16:9
Frame rate mode  : Constant
Frame rate  : 29.970 fps
Original frame rate  : 29.000 fps
Color space  : YUV
Chroma subsampling  : 4:2:0
Bit depth  : 8 bits
Scan type  : Progressive
Bits/(Pixel*Frame)  : 0.075
Stream size  : 1.56 GiB (94%)
Writing library  : Ä
Language  : English

Audio
ID  : 1
Format  : AAC
Format/Info  : Advanced Audio Codec
Format profile  : LC
Codec ID  : 40
Duration  : 1h 48mn
Bit rate mode  : Constant
Bit rate  : 128 Kbps
Channel(s)  : 2 channels
Channel positions  : Front: L R
Sampling rate  : 48.0 KHz
Compression mode  : Lossy
Stream size  : 98.9 MiB (6%)
Language  : English
Download | Fshare | 1.7 GB
[HIDE]http://www.fshare.vn/file/T6FWZ6S2ST/[/HIDE]

Phụ Đề Việt (Cập Nhật)
Subscene - Subtitles for X-Men: Days of Future Past



 

Bài xem nhiều

Chia sẻ kiến thức - Download phần mềm