• Hãy ủng hộ PhienBanMoi.Com bằng cách LIKE trang FANPAGE , GOOGLE+ dưới mỗi bài viết hoặc chia sẻ website nếu thấy hữu ích. Trân trọng cảm ơn!
  • [Thông Báo] Tuyển thành viên viết bài KIẾM TIỀN trên PhienBanMoi.Com


    Nhằm mục đích phát triển Phienbanmoi.com hơn nữa, có thêm các bài viết thông tin thực sự hữu ích từ những thành viên tích cực. BQT đã quyến định tạo ra cơ hội kiếm tiền từ các bài viết được đăng tải và chia sẻ trên diễn đàn

Ghost Rider 2 - Spirit of Vengeance - Ma Tốc Độ 2 - Linh Hồn Báo Thù 720p HDRip

khatmau_sr

Administrator
Thành viên BQT
Tham gia
3/2/12
Bài viết
10,058
Thích
9,206
Nơi ở
[PBM]
#1
Ghost Rider: Spirit of Vengeance (2012) 720p HDRip AAC H264-KTH

Ma Tốc Độ 2: Linh Hồn Báo Thù
(Nicolas Cage)




Mã:
[B]Tên phim:[/B] Ghost Rider: Spirit of Vengeance (2012) 
[B]Đạo diễn:[/B] Mark Neveldine, Brian Taylor
[B]Kịch bản:[/B] Scott M. Gimple (screenplay), Seth Hoffman (screenplay)
[B]Diễn viên chính:[/B] Nicolas Cage, Ciarán Hinds and Idris Elba
[B]Thể loại:[/B] Action | Fantasy | Thriller
[B]Đánh giá:[/B] 5.0/10 from 12,716 users
[B]Thời lượng:[/B] 95 mins
[B]Ngôn ngữ:[/B] English
[B]Quốc gia:[/B] USA | United Arab Emirates

Mã:
General
Format                           : MPEG-4
Codec ID                         : mp42
File size                        : 2.23 GiB
Duration                         : 1h 35mn
Overall bit rate                 : 3 344 Kbps


Video
Format                           : AVC
Duration                         : 1h 35mn
Bit rate                         : 3 000 Kbps
Width                            : 1 280 pixels
Height                           : 720 pixels
Display aspect ratio             : 16:9
Frame rate                       : 29.970 fps
Scan type                        : Progressive
Stream size                      : 2.05 GiB (92%)


Audio
Format                           : AAC
Duration                         : 1h 35mn
Bit rate                         : 128 Kbps
Channel(s)                       : 2 channels
Channel positions                : Front: L R
Stream size                      : 87.5 MiB (4%)






View fullscreens:
Mã:
[CENTER]http://www.imagebam.com/gallery/6q8y1jm69u2wdaizawwiqa6eisdp5hej/[/CENTER]

Download: HD 720p:


FShare.VN 1 Link:

Download bản Rip:

Torrent:
Sub Việt: (chưa test)
[DOWNBOX]Ghost Rider 2: Spirit of Vengeance (2012) 720p HDRip AAC H264-KTH[/DOWNBOX]




[video=youtube;iJv2Wno1cA4]http://www.youtube.com/watch?v=iJv2Wno1cA4[/video]​


Nguồn: HDVN​
 

qqwwee123

Super Moderator
Thành viên BQT
Tham gia
5/2/12
Bài viết
1,521
Thích
1,448
#7
bản này bị Hardsub tiếng Hàn, hình ảnh k đc rõ nét lắm :(
tốn 10p cuộc đời khj load bộ này về quá
del luôn đợi hàng chuẩn 720p và 1080p International rồi kéo :>
 

hand210

Member Chính Thức
Tham gia
17/3/12
Bài viết
26
Thích
2
#9
Sao link torren 1 dung lượng mà fshare 1 dung lượng thế kia :(
 

Raymond

Member Tích Cực
Tham gia
11/2/12
Bài viết
164
Thích
65
Nơi ở
Biên Hòa - Đồng Nai
#10
HD 720p mà chỉ có 2.2GB thì hơi lạ . Vì 1 phim HD 720p khoảng 90' thường thường là 4.6 GB hoặc hơn ( tùy đồ họa và time ):D
 

aoe1991

Quang MK
Tham gia
25/2/12
Bài viết
2,743
Thích
689
Nơi ở
PHÚ THỌ
#16
down ngay thôi, giờ nhớ lại bản 1 vẫn thấy phê. Mà bác khatmau thế nào lại làm câu sub việt chưa test thế kia chứ lại... :)) :))
Đằng nào dạo này cũng k thấy có phim mới mấy để down, down về nhìn qua k đẹp thì xoá sau vậy. :))
 

khatmau_sr

Administrator
Thành viên BQT
Tham gia
3/2/12
Bài viết
10,058
Thích
9,206
Nơi ở
[PBM]
#18
Hì hì, Sub đó hơi lệch tí nhưng vẫn khá chuẩn, tóm lại là xem xong rùi, hôm nào kéo HD về cắm vào con Soni 42 inch ở nhà xem cho khoái
 

Bài xem nhiều

Chia sẻ kiến thức - Download phần mềm