• Hãy ủng hộ PhienBanMoi.Com bằng cách LIKE trang FANPAGE , GOOGLE+ dưới mỗi bài viết hoặc chia sẻ website nếu thấy hữu ích. Trân trọng cảm ơn!
  • [Thông Báo] Tuyển thành viên viết bài KIẾM TIỀN trên PhienBanMoi.Com


    Nhằm mục đích phát triển Phienbanmoi.com hơn nữa, có thêm các bài viết thông tin thực sự hữu ích từ những thành viên tích cực. BQT đã quyến định tạo ra cơ hội kiếm tiền từ các bài viết được đăng tải và chia sẻ trên diễn đàn

[Hành Động]TheGirlfromtheNakedEye2012720pBluRayDTSx264-Món Nợ Của Rồng

ngocbaosaigonbmt

Team NewUpload
Tham gia
18/4/12
Bài viết
222
Thích
117
#1
Phim Món Nợ Của Rồng - The Girl From The Naked Eye 2012
Tên phim: Món Nợ Của Rồng
Tên khác: The Girl From The Naked Eye 2012
Đạo diễn: David Ren,
Diễn viên: Jason Yee, Samantha Streets,
Gary Stretch, Dominique Swain, Ron Yuan,
Wilson Jermaine Heredia, Sasha Grey,
Jerry Ying, James Lew, Pete Antico, Kovar McClure,
Chris Ufland, Art Hsu, Sno E. Blac, Assaf Cohen,
Sản xuất: Mu-Yee Productions, MiniFlix Films,
Thể loại: Hành Động, Tâm Lý, 18+
Quốc gia: Mỹ - Châu Âu
Năm phát hành: 2012,
Thời lượng: 83 phút,





Format : Matroska
Format version : Version 2
File size : 4.37 GiB
Duration : 1h 23mn
Overall bit rate mode : Variable
Overall bit rate : 7 476 Kbps
Movie name : The Girl from the Naked Eye 2012 720p BluRay DTS x264-DNL
Encoded date : UTC 2011-12-16 14:19:34
Writing application : mkvmerge v4.4.0 ('Die Wiederkehr') built on Oct 31 2010 21:52:48
Writing library : libebml v1.0.0 + libmatroska v1.0.0

Video
ID : 1
Format : AVC
Format/Info : Advanced Video Codec
Format profile : High@L4.1
Format settings, CABAC : Yes
Format settings, ReFrames : 8 frames
Codec ID : V_MPEG4/ISO/AVC
Duration : 1h 23mn
Bit rate mode : Variable
Bit rate : 5 965 Kbps
Maximum bit rate : 25.0 Mbps
Width : 1 280 pixels
Height : 544 pixels
Display aspect ratio : 2.35:1
Frame rate mode : Constant
Frame rate : 23.976 fps
Color space : YUV
Chroma subsampling : 4:2:0
Bit depth : 8 bits
Scan type : Progressive
Bits/(Pixel*Frame) : 0.357
Stream size : 3.40 GiB (78%)
Writing library : x264 core 112 r1867 22bfd31
Encoding settings : cabac=1 / ref=8 / deblock=1:0:0 / analyse=0x3:0x133 / me=umh / subme=7 / psy=1 / psy_rd=1.00:0.00 / mixed_ref=1 / me_range=16 / chroma_me=1 / trellis=1 / 8x8dct=1 / cqm=0 / deadzone=21,11 / fast_pskip=1 / chroma_qp_offset=-2 / threads=12 / sliced_threads=0 / nr=0 / decimate=1 / interlaced=0 / constrained_intra=0 / bframes=3 / b_pyramid=0 / b_adapt=1 / b_bias=0 / direct=1 / weightb=1 / open_gop=0 / weightp=2 / keyint=240 / keyint_min=24 / scenecut=40 / intra_refresh=0 / rc_lookahead=40 / rc=2pass / mbtree=1 / bitrate=5965 / ratetol=1.0 / qcomp=0.60 / qpmin=0 / qpmax=51 / qpstep=4 / cplxblur=20.0 / qblur=0.5 / vbv_maxrate=25000 / vbv_bufsize=25000 / nal_hrd=vbr / ip_ratio=1.40 / aq=1:1.00
Default : Yes
Forced : No

Audio
ID : 2
Format : DTS
Format/Info : Digital Theater Systems
Mode : 16
Format settings, Endianness : Big
Codec ID : A_DTS
Duration : 1h 23mn
Bit rate mode : Constant
Bit rate : 1 509 Kbps
Channel(s) : 6 channels
Channel positions : Front: L C R, Side: L R, LFE
Sampling rate : 48.0 KHz
Bit depth : 16 bits
Compression mode : Lossy
Stream size : 903 MiB (20%)
Language : English
Default : Yes
Forced : No
Thông tin phim Món Nợ Của Rồng: Vào một đêm Sandy được tìm thấy và đã chết, đầu mối duy nhất để lại là 1 chiếc điện thoại di động và các cuộc gọi trước đêm cô ấy chết. Để trả thù cho cái chết của Sandy, Jake phải vượt qua sự nguy hiểm và đi trên một con đường đẫm máu để tìm kẻ giết Sandy.

Link Fshare : 4.59GB



[hide]http://www.fshare.vn/folder/TBD6R4Z0RT/[/hide]
 

Bài xem nhiều

Chia sẻ kiến thức - Download phần mềm