• Hãy ủng hộ PhienBanMoi.Com bằng cách LIKE trang FANPAGE , GOOGLE+ dưới mỗi bài viết hoặc chia sẻ website nếu thấy hữu ích. Trân trọng cảm ơn!
  • [Thông Báo] Tuyển thành viên viết bài KIẾM TIỀN trên PhienBanMoi.Com


    Nhằm mục đích phát triển Phienbanmoi.com hơn nữa, có thêm các bài viết thông tin thực sự hữu ích từ những thành viên tích cực. BQT đã quyến định tạo ra cơ hội kiếm tiền từ các bài viết được đăng tải và chia sẻ trên diễn đàn

Phim [Hành động | Viễn tưởng | 1 Link] Transformers: Age of Extinction (2014) 720p WEB-DL DD5.1 H.264-RAR

papa1210

Member Tích Cực
Tham gia
9/8/14
Bài viết
160
Thích
267
#1




Video
ID : 1
Format : AVC
Format/Info : Advanced Video Codec
Format profile : Main@L3.1
Format settings, CABAC : No
Format settings, ReFrames : 2 frames
Codec ID : V_MPEG4/ISO/AVC
Duration : 2h 45mn
Bit rate : 3 854 Kbps
Width : 1 280 pixels
Height : 532 pixels
Display aspect ratio : 2.40:1
Frame rate mode : Constant
Frame rate : 23.976 fps
Color space : YUV
Chroma subsampling : 4:2:0
Bit depth : 8 bits
Scan type : Progressive
Bits/(Pixel*Frame) : 0.236
Stream size : 4.46 GiB (89%)
Title : Transformers.Age.of.Extinction.2014.720p.WEB-DL.DD5.1.H264-RARBG
Language : English
Default : Yes
Forced : No
Color primaries : BT.709
Transfer characteristics : BT.709
Matrix coefficients : BT.709

Audio
ID : 2
Format : AC-3
Format/Info : Audio Coding 3
Mode extension : CM (complete main)
Format settings, Endianness : Big
Codec ID : A_AC3
Duration : 2h 45mn
Bit rate mode : Constant
Bit rate : 384 Kbps
Channel(s) : 6 channels
Channel positions : Front: L C R, Side: L R, LFE
Sampling rate : 48.0 KHz
Bit depth : 16 bits
Compression mode : Lossy
Stream size : 455 MiB (9%)
Title : Transformers.Age.of.Extinction.2014.720p.WEB-DL.DD5.1.H264-RARBG
Language : English
Default : Yes
Forced : No

Text
ID : 3
Format : UTF-8
Codec ID : S_TEXT/UTF8
Codec ID/Info : UTF-8 Plain Text
Language : English
Default : Yes
Forced : No
TRANSFORMERS 4 được bắt đầu sau 4 năm về trận chiến ở Los Angeles trong phần trước Transformers: Dark of the Moon. Câu chuyện mở màn bởi những lời đồn đại về một thợ cơ khí và con gái của ông ta đã phát hiện ra một bí mật có thể khiến cả Autobots, Decepticons, và chính phủ Hoa Kỳ bị đe dọa. Không chỉ dừng lại ở đó, ở phần này, câu chuyện sẽ dẫn người xem đến những ngã rẻ hoàn toàn mới và cũng vô vàn những bất ngờ. Trở lại với dàn diễn viên mới gồm Mark Wahlberg, Nicola Peltz, Jack Reynor… và sự cống hiến của đạo diễn tên tuổi Michael Bay, bộ phim chắc chắn sẽ là một quả bom khuấy động tất cả các rạp trong mùa hè 2014.


Link:
 

Bài xem nhiều

Chia sẻ kiến thức - Download phần mềm