• Hãy ủng hộ PhienBanMoi.Com bằng cách LIKE trang FANPAGE , GOOGLE+ dưới mỗi bài viết hoặc chia sẻ website nếu thấy hữu ích. Trân trọng cảm ơn!
  • [Thông Báo] Tuyển thành viên viết bài KIẾM TIỀN trên PhienBanMoi.Com


    Nhằm mục đích phát triển Phienbanmoi.com hơn nữa, có thêm các bài viết thông tin thực sự hữu ích từ những thành viên tích cực. BQT đã quyến định tạo ra cơ hội kiếm tiền từ các bài viết được đăng tải và chia sẻ trên diễn đàn

Phim [ Hành Động | Viễn Tưởng ] Teenage Mutant Ninja Turtles 2014 720p HDRip x264 AC3.5.1-RARBG

papa1210

Member Tích Cực
#1

Video
ID : 1
Format : AVC
Format/Info : Advanced Video Codec
Format profile : High@L4.1
Format settings, CABAC : Yes
Format settings, ReFrames : 4 frames
Codec ID : V_MPEG4/ISO/AVC
Duration : 1h 41mn
Bit rate : 4 309 Kbps
Width : 1 280 pixels
Height : 532 pixels
Display aspect ratio : 2.40:1
Frame rate mode : Constant
Frame rate : 23.976 fps
Color space : YUV
Chroma subsampling : 4:2:0
Bit depth : 8 bits
Scan type : Progressive
Bits/(Pixel*Frame) : 0.264
Stream size : 2.93 GiB (90%)
Title : Teenage.Mutant.Ninja.Turtles.2014.720p.HDRip.x264. AC3.5.1-RARBG
Writing library : x264 core 130 r2273 b3065e6

Language : English
Default : Yes
Forced : No
Color primaries : BT.709
Transfer characteristics : BT.709
Matrix coefficients : BT.709

Audio
ID : 2
Format : AC-3
Format/Info : Audio Coding 3
Mode extension : CM (complete main)
Format settings, Endianness : Big
Codec ID : A_AC3
Duration : 1h 41mn
Bit rate mode : Constant
Bit rate : 384 Kbps
Channel(s) : 6 channels
Channel positions : Front: L C R, Side: L R, LFE
Sampling rate : 48.0 KHz
Bit depth : 16 bits
Compression mode : Lossy
Stream size : 279 MiB (8%)
Title : Teenage.Mutant.Ninja.Turtles.2014.720p.HDRip.x264. AC3.5.1-RARBG
Default : Yes
Forced : No

Text
ID : 3
Format : UTF-8
Codec ID : S_TEXT/UTF8
Codec ID/Info : UTF-8 Plain Text
Language : English
Default : Yes
Forced : No

Menu
00:00:00.000 : en:Chapter 1
00:02:42.078 : en:Chapter 2
00:06:00.068 : en:Chapter 3
00:11:51.044 : en:Chapter 4
00:16:01.044 : en:Chapter 5
00:22:02.030 : en:Chapter 6
00:28:22.035 : en:Chapter 7
00:34:02.000 : en:Chapter 8
00:38:04.034 : en:Chapter 9
00:42:10.030 : en:Chapter 10
00:48:36.041 : en:Chapter 11
00:55:46.054 : en:Chapter 12
01:00:44.060 : en:Chapter 13
01:07:46.066 : en:Chapter 14
01:15:30.030 : en:Chapter 15
01:24:11.051 : en:Chapter 16
01:30:17.042 : en:Chapter 17
01:34:13.028 : en:Chapter 18





Từ một nghiên cứu hóa học thất bại, tình cờ đã khiến cho những chú rùa bình thường bị đột biến thành khổng lồ với khả năng đi đứng và nói chuyện như người. Được một bậc thầy võ thuật là Splinter (Tony Shalhoub) nuôi nấng và dạy dỗ, bốn chú rùa con ngày nào đã trưởng thành, là những ninja bí mật chiến đấu bảo vệ chính nghĩa và hòa bình trong thế giới ngầm của thành phố New York.

Với sự hỗ trợ của cô phóng viên trẻ xinh đẹp April O’Neil (Megan Fox), người có bố tham gia vào chương trình thí nghiệm chất hóa học nọ, năm thầy trò tìm cách chống lại thế lực đen tối của tên tội phạm Shredder cùng tổ chức Foot Clan của hắn, vốn kiểm soát cả lực lượng cảnh sát và các ********* gia, để ********** cho cả thành phố

HDVietnam
 

Bài xem nhiều