• Hãy ủng hộ PhienBanMoi.Com bằng cách LIKE trang FANPAGE , GOOGLE+ dưới mỗi bài viết hoặc chia sẻ website nếu thấy hữu ích. Trân trọng cảm ơn!
  • [Thông Báo] Tuyển thành viên viết bài KIẾM TIỀN trên PhienBanMoi.Com


    Nhằm mục đích phát triển Phienbanmoi.com hơn nữa, có thêm các bài viết thông tin thực sự hữu ích từ những thành viên tích cực. BQT đã quyến định tạo ra cơ hội kiếm tiền từ các bài viết được đăng tải và chia sẻ trên diễn đàn

[Multilty-link]Không Lối Thoát 3D-Dark Country 3D (2009) ML 1080p 3DBD x264

#1


Thông tin:

Mã:
Duration: 88min
Format: mkv
Audio: english +french 5.1 DTS @ 1509 kbps, german AC3 2.0 @ 384 kbps (from "The.Dark.Country.2009.German.HDTV.720p.x264-ETM")
Size: left&right mkvs:....still encoding..., side-by-side:8,31GB
Resolution: 1920 x 1080
Genre: 3D, Crime, Mystery, Thriller
Movie Info: http://www.imdb.com/title/tt0469318/

side by side (SBS) Version

Mediainfo SBS
General
Complete name : Dark.Country.3D.2009.ML.1080p.3DBD.x264.half.SBS.z-man.mkv
Format : Matroska
File size : 8.31 GiB
Duration : 1h 28mn
Overall bit rate : 13.5 Mbps
Encoded date : UTC 2011-04-02 04:26:51
Writing application : mkvmerge v4.4.0 ('Die Wiederkehr') gebaut am Oct 31 2010 21:52:48
Writing library : libebml v1.0.0 + libmatroska v1.0.0

Video
ID : 1
Format : AVC
Format/Info : Advanced Video Codec
Format profile : High@L4.1
Format settings, CABAC : Yes
Format settings, ReFrames : 4 frames
Format settings, GOP : M=4, N=32
Codec ID : V_MPEG4/ISO/AVC
Duration : 1h 28mn
Bit rate : 9 833 Kbps
Width : 1 920 pixels
Height : 1 080 pixels
Display aspect ratio : 16:9
Frame rate : 23.976 fps
Color space : YUV
Chroma subsampling : 4:2:0
Bit depth : 8 bits
Scan type : Progressive
Bits/(Pixel*Frame) : 0.198
Stream size : 6.05 GiB (73%)
Title : Dark.Country.3D.2009.ML.1080p.3DBD.x264.half.SBS.z-man
Writing library : x264 core 114 r1924 08d04a4
Encoding settings : cabac=1 / ref=4 / deblock=1:-1:-1 / analyse=0x3:0x113 / me=umh / subme=9 / psy=1 / psy_rd=1.00:0.15 / mixed_ref=1 / me_range=16 / chroma_me=1 / trellis=1 / 8x8dct=1 / cqm=0 / deadzone=21,11 / fast_pskip=1 / chroma_qp_offset=-3 / threads=18 / sliced_threads=0 / nr=0 / decimate=1 / interlaced=0 / constrained_intra=0 / bframes=3 / b_pyramid=2 / b_adapt=1 / b_bias=0 / direct=3 / weightb=1 / open_gop=0 / weightp=2 / keyint=250 / keyint_min=23 / scenecut=40 / intra_refresh=0 / rc_lookahead=40 / rc=crf / mbtree=1 / crf=16.0 / qcomp=0.60 / qpmin=10 / qpmax=69 / qpstep=4 / ip_ratio=1.40 / aq=1:1.00

Audio #1
ID : 2
Format : DTS
Format/Info : Digital Theater Systems
Codec ID : A_DTS
Duration : 1h 28mn
Bit rate mode : Constant
Bit rate : 1 510 Kbps
Channel(s) : 6 channels
Channel positions : Front: L C R, Side: L R, LFE
Sampling rate : 48.0 KHz
Bit depth : 24 bits
Compression mode : Lossy
Stream size : 952 MiB (11%)
Language : English

Audio #2
ID : 3
Format : DTS
Format/Info : Digital Theater Systems
Codec ID : A_DTS
Duration : 1h 28mn
Bit rate mode : Constant
Bit rate : 1 510 Kbps
Channel(s) : 6 channels
Channel positions : Front: L C R, Side: L R, LFE
Sampling rate : 48.0 KHz
Bit depth : 24 bits
Compression mode : Lossy
Stream size : 952 MiB (11%)
Language : French

Audio #3
ID : 4
Format : AC-3
Format/Info : Audio Coding 3
Mode extension : CM (complete main)
Codec ID : A_AC3
Duration : 1h 28mn
Bit rate mode : Constant
Bit rate : 384 Kbps
Channel(s) : 2 channels
Channel positions : Front: L R
Sampling rate : 48.0 KHz
Bit depth : 16 bits
Compression mode : Lossy
Stream size : 242 MiB (3%)
Language : German


Dark Country - Không Lối Thoát

Mã:
Đạo diễn: Thomas Jane,
Diễn viên: Ron Perlman, Thomas Jane, Lauren German,
Thể loại: Kinh Dị - Ma
Độ dài: 88 phút
Quốc gia: Mỹ - Châu Âu
Năm sản xuất: 2009


[B]:: Nội dung film ::[/B]
Dick cùng người vợ Gina đang trên đường đến Las Vegas để hưởng tuần trăng mật. Khi băng qua một sa mạc, cả hai vô tình va phải một người đàn ông, Bloodyface. Thấy rằng anh ta vẫn còn sống, họ quyết định đưa anh đến bệnh viện để chữa trị. 

Rắc rối bắt đầu nảy sinh khi Bloodyface tỉnh lại, có nhiều lời nói và hành vi khác lạ với đôi vợ chồng và thậm chí còn tấn công Dick. Trong cuộc xung đột, Dick đã vô ý giết Bloodyface để tự phòng vệ. Hoảng sợ cùng cực, cả hai quyết định chôn cái xác để tiêu hủy hoàn toàn chứng cứ.

Ác mộng có thật đã chấm dứt, hay đó chỉ là khúc dạo đầu cho một chuỗi cơn ác mộng về sau? Bloodyface thật sự là ai? Dick đã có được câu trả lời sau khi đi đến cuối con đường tối và nhìn thấy... Ác mộng cũ kết thúc, mở ra cơn ác mộng mới, với một vai diễn mới, cho Dick...
NETLOAD:


FILEFACTORY:
RAPIDGATOR:
 

Bài xem nhiều