• Hãy ủng hộ PhienBanMoi.Com bằng cách LIKE trang FANPAGE , GOOGLE+ dưới mỗi bài viết hoặc chia sẻ website nếu thấy hữu ích. Trân trọng cảm ơn!
  • [Thông Báo] Tuyển thành viên viết bài KIẾM TIỀN trên PhienBanMoi.Com


    Nhằm mục đích phát triển Phienbanmoi.com hơn nữa, có thêm các bài viết thông tin thực sự hữu ích từ những thành viên tích cực. BQT đã quyến định tạo ra cơ hội kiếm tiền từ các bài viết được đăng tải và chia sẻ trên diễn đàn

Phim Ong-Bak 2 2008 THAI 1080p BluRay x264 DTS-FGT ~ Truy Tìm Tượng Phật 2

Ong-Bak 2 2008 THAI 1080p BluRay x264 DTS-FGT
Truy Tìm Tượng Phật 2







Mã:
Video
ID                                       : 1
Format                                   : AVC
Format/Info                              : Advanced Video Codec
Format profile                           : High@L4.1
Format settings, CABAC                   : Yes
Format settings, ReFrames                : 4 frames
Codec ID                                 : V_MPEG4/ISO/AVC
Duration                                 : 1h 37mn
Bit rate                                 : 12.3 Mbps
Width                                    : 1 920 pixels
Height                                   : 818 pixels
Display aspect ratio                     : 2.35:1
Frame rate mode                          : Constant
Frame rate                               : 24.000 fps
Color space                              : YUV
Chroma subsampling                       : 4:2:0
Bit depth                                : 8 bits
Scan type                                : Progressive
Bits/(Pixel*Frame)                       : 0.326
Stream size                              : 8.18 GiB (87%)
Writing library                          : x264 core 67 r1148M 400740b
Encoding settings                        : cabac=1 / ref=4 / deblock=1:-3:-3 / analyse=0x3:0x113 / me=umh / subme=9 / psy_rd=1.0:0.0 / mixed_ref=1 / me_range=32 / chroma_me=1 / trellis=2 / 8x8dct=1 / cqm=0 / deadzone=21,11 / chroma_qp_offset=-2 / threads=6 / nr=0 / decimate=1 / mbaff=0 / bframes=3 / b_pyramid=1 / b_adapt=2 / b_bias=0 / direct=3 / wpredb=1 / keyint=250 / keyint_min=25 / scenecut=40 / rc=2pass / bitrate=12276 / ratetol=1.0 / qcomp=0.60 / qpmin=10 / qpmax=51 / qpstep=4 / cplxblur=20.0 / qblur=0.5 / ip_ratio=1.40 / pb_ratio=1.30 / aq=1:0.80
Language                                 : Thai
Default                                  : Yes
Forced                                   : No

Audio
ID                                       : 2
Format                                   : DTS
Format/Info                              : Digital Theater Systems
Mode                                     : 16
Format settings, Endianness              : Big
Codec ID                                 : A_DTS
Duration                                 : 1h 37mn
Bit rate mode                            : Constant
Bit rate                                 : 1 509 Kbps
Channel(s)                               : 6 channels
Channel positions                        : Front: L C R, Side: L R, LFE
Sampling rate                            : 48.0 KHz
Frame rate                               : 93.750 fps (512 spf)
Bit depth                                : 24 bits
Compression mode                         : Lossy
Stream size                              : 1.03 GiB (11%)
Language                                 : Thai
Default                                  : Yes
Forced                                   : No

Text
ID                                       : 3
Format                                   : UTF-8
Codec ID                                 : S_TEXT/UTF8
Codec ID/Info                            : UTF-8 Plain Text
Language                                 : English
Default                                  : Yes
Forced                                   : No



Ong bak 2 không phải là tập tiếp theo của bộ phim gốc năm 2003. Câu chuyện đưa ta về thế kỷ 15 tại Thái Lan với nhân vật chính là Tien. Mang trong mình dòng máu quí tộc, nên ngay từ nhỏ Tien đã không được cha cho luyện tập võ thuật. Thay vào đó cậu được đưa tới một lớp dậy múa Khon truyền thống.Không may cả gia đình cậu bị kẻ thù giết hại. Sau khi đau đớn chứng kiến cái chết của cả cha lẫn mẹ, Tien bị truy sát gắt gao bởi một nhóm người hành tung bí ẩn. Lưu lạc khắp nơi, thậm chí còn bị bắt làm nô lệ, cậu được Chernung thủ lĩnh của băng cướp Garuda Wing Cliff khét tiếng cưu mang.

Nhận thấy tố chất hiếm có trong người cậu bé, Chernung cùng những cao thủ khác trong làng truyền thụ toàn bộ võ công cho Tien. Thời gian thấm thoát thoi đưa, cậu bé còn non nớt ngày nào nay đã là truyền nhân của Chernung và sẽ trở thành vị thủ lĩnh tài ba. Nhưng anh vẫn còn nhớ như in nỗi đau năm xưa. Tien quyết định quay trở về để trả thù cho gia đình nhưng lại phát hiện ra một sự thật tàn nhẫn.





 

Bình luận

Bài xem nhiều

Chia sẻ kiến thức - Download phần mềm