• Hãy ủng hộ PhienBanMoi.Com bằng cách LIKE trang FANPAGE , GOOGLE+ dưới mỗi bài viết hoặc chia sẻ website nếu thấy hữu ích. Trân trọng cảm ơn!
  • [Thông Báo] Tuyển thành viên viết bài KIẾM TIỀN trên PhienBanMoi.Com


    Nhằm mục đích phát triển Phienbanmoi.com hơn nữa, có thêm các bài viết thông tin thực sự hữu ích từ những thành viên tích cực. BQT đã quyến định tạo ra cơ hội kiếm tiền từ các bài viết được đăng tải và chia sẻ trên diễn đàn

Phim Ong-Bak 2003 THAI 1080p BluRay x264 DTS-FGT ~ Truy Tìm Tượng Phật 1

Ong-Bak 2003 THAI 1080p BluRay x264 DTS-FGT
Truy Tìm Tượng Phật 1







Mã:
Video
ID                                       : 1
Format                                   : AVC
Format/Info                              : Advanced Video Codec
Format profile                           : High@L5
Format settings, CABAC                   : Yes
Format settings, ReFrames                : 6 frames
Codec ID                                 : V_MPEG4/ISO/AVC
Duration                                 : 1h 44mn
Bit rate                                 : 12.3 Mbps
Width                                    : 1 920 pixels
Height                                   : 1 040 pixels
Display aspect ratio                     : 1.85:1
Frame rate mode                          : Constant
Frame rate                               : 24.000 fps
Color space                              : YUV
Chroma subsampling                       : 4:2:0
Bit depth                                : 8 bits
Scan type                                : Progressive
Bits/(Pixel*Frame)                       : 0.257
Stream size                              : 8.80 GiB (87%)
Writing library                          : x264 core 61 r955M d4265bb
Encoding settings                        : cabac=1 / ref=6 / deblock=1:-3:-3 / analyse=0x3:0x133 / me=umh / subme=7 / psy_rd=1.2:0.0 / brdo=1 / mixed_ref=1 / me_range=32 / chroma_me=1 / trellis=0 / 8x8dct=1 / cqm=2 / deadzone=6,6 / chroma_qp_offset=-2 / threads=6 / nr=0 / decimate=1 / mbaff=0 / bframes=16 / b_pyramid=1 / b_adapt=1 / b_bias=0 / direct=1 / wpredb=1 / bime=1 / keyint=250 / keyint_min=25 / scenecut=40(pre) / rc=2pass / bitrate=12324 / ratetol=1.0 / qcomp=1.00 / qpmin=10 / qpmax=51 / qpstep=4 / cplxblur=20.0 / qblur=0.5 / ip_ratio=1.40 / pb_ratio=1.30 / aq=2:0.60
Language                                 : Thai
Default                                  : Yes
Forced                                   : No

Audio
ID                                       : 2
Format                                   : DTS
Format/Info                              : Digital Theater Systems
Mode                                     : 16
Format settings, Endianness              : Big
Codec ID                                 : A_DTS
Duration                                 : 1h 44mn
Bit rate mode                            : Constant
Bit rate                                 : 1 509 Kbps
Channel(s)                               : 6 channels
Channel positions                        : Front: L C R, Side: L R, LFE
Sampling rate                            : 48.0 KHz
Frame rate                               : 93.750 fps (512 spf)
Bit depth                                : 16 bits
Compression mode                         : Lossy
Stream size                              : 1.10 GiB (11%)
Language                                 : Thai
Default                                  : Yes
Forced                                   : No

Text
ID                                       : 3
Format                                   : UTF-8
Codec ID                                 : S_TEXT/UTF8
Codec ID/Info                            : UTF-8 Plain Text
Language                                 : English
Default                                  : Yes
Forced                                   : Yes



Ting, một chàng trai tỉnh lẻ, tình nguyện lên thành phố tìm lại đầu pho tượng phật thiêng liêng bị đám tội phạm cướp đi. Sự giúp đỡ (vô dụng) của gã đồng hương đẩy Ting vào những cuộc đấu bất hợp pháp.





 

Bình luận

Bài xem nhiều

Chia sẻ kiến thức - Download phần mềm