• Hãy ủng hộ PhienBanMoi.Com bằng cách LIKE trang FANPAGE , GOOGLE+ dưới mỗi bài viết hoặc chia sẻ website nếu thấy hữu ích. Trân trọng cảm ơn!
  • [Thông Báo] Tuyển thành viên viết bài KIẾM TIỀN trên PhienBanMoi.Com


    Nhằm mục đích phát triển Phienbanmoi.com hơn nữa, có thêm các bài viết thông tin thực sự hữu ích từ những thành viên tích cực. BQT đã quyến định tạo ra cơ hội kiếm tiền từ các bài viết được đăng tải và chia sẻ trên diễn đàn

Phim Planet Terror 2007 1080p BluRay x264-1920 | Lệnh Hủy Diệt ~ Sub Việt

Planet Terror 2007 1080p BluRay x264-1920
Lệnh Hủy Diệt ~ Sub Việt




Mã:
Video
ID                                       : 1
Format                                   : AVC
Format/Info                              : Advanced Video Codec
Format profile                           : High@L4.1
Format settings                          : CABAC / 5 Ref Frames
Format settings, CABAC                   : Yes
Format settings, ReFrames                : 5 frames
Codec ID                                 : V_MPEG4/ISO/AVC
Duration                                 : 1 h 45 min
Bit rate                                 : 10.1 Mb/s
Width                                    : 1 920 pixels
Height                                   : 1 080 pixels
Display aspect ratio                     : 16:9
Frame rate mode                          : Constant
Frame rate                               : 23.976 FPS
Color space                              : YUV
Chroma subsampling                       : 4:2:0
Bit depth                                : 8 bits
Scan type                                : Progressive
Bits/(Pixel*Frame)                       : 0.204
Stream size                              : 7.32 GiB (92%)
Writing library                          : x264 core 65 r1040M 1591275
Encoding settings                        : cabac=1 / ref=5 / deblock=1:0:0 / analyse=0x3:0x133 / me=umh / subme=7 / psy_rd=1.0:0.0 / mixed_ref=1 / me_range=16 / chroma_me=1 / trellis=1 / 8x8dct=1 / cqm=0 / deadzone=21,11 / chroma_qp_offset=-2 / threads=6 / nr=0 / decimate=1 / mbaff=0 / bframes=3 / b_pyramid=1 / b_adapt=1 / b_bias=0 / direct=1 / wpredb=1 / keyint=250 / keyint_min=25 / scenecut=40(pre) / rc=2pass / bitrate=10133 / ratetol=1.0 / qcomp=0.60 / qpmin=10 / qpmax=51 / qpstep=4 / cplxblur=20.0 / qblur=0.5 / ip_ratio=1.40 / pb_ratio=1.30 / aq=1:1.00
Language                                 : English
Default                                  : Yes
Forced                                   : No

Audio
ID                                       : 2
Format                                   : AC-3
Format/Info                              : Audio Coding 3
Codec ID                                 : A_AC3
Duration                                 : 1 h 45 min
Bit rate mode                            : Constant
Bit rate                                 : 640 kb/s
Channel(s)                               : 6 channels
Channel positions                        : Front: L C R, Side: L R, LFE
Sampling rate                            : 48.0 kHz
Frame rate                               : 31.250 FPS (1536 SPF)
Bit depth                                : 16 bits
Compression mode                         : Lossy
Stream size                              : 483 MiB (6%)
Language                                 : English
Service kind                             : Complete Main
Default                                  : Yes
Forced                                   : No

Một thị trấn tồi tàn tại Texas. Nữ vũ công Cherry (Rose McGowan) quyết định sẽ từ bỏ công việc thấp kém tại hộp đêm để đi tìm một cơ hội mới. Cô gặp lại người tình cũ El Wray (Freddy Rodriguez) trong một nhà hàng, cả hai cùng trò chuyện khá vui vẻ.

Cùng lúc đó, một nhóm quan chức trong quân đội đang lén lút mua bán một loại hóa chất chết người có tên là DC2. Cuộc mua bán bỗng nảy sinh bất đồng. Trung úy Muldoon (Bruce Willis) dùng bạo lực để khống chế đối tác của mình, nào ngờ gã kia đã nhanh tay tung loại hóa chất độc hại ra không khí. Khí DC2 nhanh chóng lan ra toàn bộ thị trấn, biến những người dân bình thường thành những kẻ dị dạng khát máu.

Tất cả các nạn nhân của khí DC2 đều được đưa đến bệnh viện để bác sĩ William cứu chữa. Nào ngờ, mâu thuẫn giữa William và vợ đã khiến ông mất hết lý trí. Cuối cùng, chính ông cũng không thoát khỏi căn bệnh truyền nhiễm quái ác... Một phim kinh dị không thích hợp với khán giả dưới 18 tuổi, được phát hành chung với tác phẩm đẫm máu Death Proof của Quentin Tarantino. Phim có một dàn diễn viên hùng hậu và một cốt truyện được đan cài nhiều tầng, hứa hẹn sẽ gây bất ngờ đến tận phút cuối cùng.










You do not have permission to view link Đăng nhập hoặc Đăng ký.
You do not have permission to view link Đăng nhập hoặc Đăng ký.
You do not have permission to view link Đăng nhập hoặc Đăng ký.
You do not have permission to view link Đăng nhập hoặc Đăng ký.
You do not have permission to view link Đăng nhập hoặc Đăng ký.
You do not have permission to view link Đăng nhập hoặc Đăng ký.
You do not have permission to view link Đăng nhập hoặc Đăng ký.
You do not have permission to view link Đăng nhập hoặc Đăng ký.
You do not have permission to view link Đăng nhập hoặc Đăng ký.
You do not have permission to view link Đăng nhập hoặc Đăng ký.
You do not have permission to view link Đăng nhập hoặc Đăng ký.
You do not have permission to view link Đăng nhập hoặc Đăng ký.
You do not have permission to view link Đăng nhập hoặc Đăng ký.
You do not have permission to view link Đăng nhập hoặc Đăng ký.
You do not have permission to view link Đăng nhập hoặc Đăng ký.
You do not have permission to view link Đăng nhập hoặc Đăng ký.
You do not have permission to view link Đăng nhập hoặc Đăng ký.
You do not have permission to view link Đăng nhập hoặc Đăng ký.
You do not have permission to view link Đăng nhập hoặc Đăng ký.
You do not have permission to view link Đăng nhập hoặc Đăng ký.
You do not have permission to view link Đăng nhập hoặc Đăng ký.
You do not have permission to view link Đăng nhập hoặc Đăng ký.
You do not have permission to view link Đăng nhập hoặc Đăng ký.
















You do not have permission to view link Đăng nhập hoặc Đăng ký.
You do not have permission to view link Đăng nhập hoặc Đăng ký.

-----------


FOLDER PHIM VIỆT NAM CHIẾU RẠP MỚI NHẤT

You do not have permission to view link Đăng nhập hoặc Đăng ký.
You do not have permission to view link Đăng nhập hoặc Đăng ký.





You do not have permission to view link Đăng nhập hoặc Đăng ký.

--------------------------------------------------------------

You do not have permission to view link Đăng nhập hoặc Đăng ký.

-----
You do not have permission to view link Đăng nhập hoặc Đăng ký.

-----
You do not have permission to view link Đăng nhập hoặc Đăng ký.

-----
You do not have permission to view link Đăng nhập hoặc Đăng ký.

-----
You do not have permission to view link Đăng nhập hoặc Đăng ký.


 

Bình luận

Bài xem nhiều

Chia sẻ kiến thức - Download phần mềm