• Hãy ủng hộ PhienBanMoi.Com bằng cách LIKE trang FANPAGE , GOOGLE+ dưới mỗi bài viết hoặc chia sẻ website nếu thấy hữu ích. Trân trọng cảm ơn!
  • [Thông Báo] Tuyển thành viên viết bài KIẾM TIỀN trên PhienBanMoi.Com


    Nhằm mục đích phát triển Phienbanmoi.com hơn nữa, có thêm các bài viết thông tin thực sự hữu ích từ những thành viên tích cực. BQT đã quyến định tạo ra cơ hội kiếm tiền từ các bài viết được đăng tải và chia sẻ trên diễn đàn

Siêu Anh Hùng Báo Thù - The Avengers 2012 R6 WEBscr Xvid AC3-bRaVo

#1




[YOUTUBE]9KOTNeFqYlA[/YOUTUBE]




PHP:
General
Unique ID                                : 248132314011940924978509317280835103388 (0xBAAC8B9D8965819D89297B06FBACEA9C)
Complete name                            : The Avengers.2012.R6.WEBscr.Xvid.AC3-bRaVo.mkv
Format                                   : Matroska
Format version                           : Version 2
File size                                : 1.85 GiB
Duration                                 : 2h 13mn
Overall bit rate                         : 1 987 Kbps
Encoded date                             : UTC 2012-05-14 16:54:58
Writing application                      : mkvmerge v5.2.0 ('I can't explain') built on Dec 18 2011 18:12:03
Writing library                          : libebml v1.2.3 + libmatroska v1.3.0

Video
ID                                       : 2
Format                                   : xvid
Codec ID                                 : xvid
Duration                                 : 2h 13mn
Bit rate                                 : 1 755 Kbps
Width                                    : 720 pixels
Height                                   : 404 pixels
Display aspect ratio                     : 16:9
Frame rate                               : 29.970 fps
Bits/(Pixel*Frame)                       : 0.201
Stream size                              : 1.64 GiB (88%)
Default                                  : Yes
Forced                                   : No

Audio
ID                                       : 1
Format                                   : AC-3
Format/Info                              : Audio Coding 3
Mode extension                           : CM (complete main)
Muxing mode                              : Header stripping
Codec ID                                 : A_AC3
Duration                                 : 2h 13mn
Bit rate mode                            : Constant
Bit rate                                 : 192 Kbps
Channel(s)                               : 2 channels
Channel positions                        : Front: L R
Sampling rate                            : 48.0 KHz
Bit depth                                : 16 bits
Compression mode                         : Lossy
Stream size                              : 183 MiB (10%)
Default                                  : Yes
Forced                                   : No
Nội dung:


Trong phim có sự tham dự của các diễn viên Robert Downey Jr vai Tony Stark/Iron Man, Chris Hemsworth vai Thor, Scarlett Johansson vai Black Widow, Jermy Renner vai Hawkeye, Samuel L. Jackson vai Nick Fury, Cobie Smulders vai Maria Hill, Tom Hiddleston vai Loki, Mark Ruffalo vai Bruce Banner/The Hulk, Stellan Skarsgård vai Erik Selvig, Clark Gregg vai Agent Coulson và Chris Evans vai Capitan America.

The Avengers là một tập hợp những siêu anh hùng bao gồm: Captain America, Iron Man, Thor, Hulk,… Tuy nhiên, Captain America vẫn chưa công chiếu. Vì là tập hợp của một loạt siêu anh hùng trên nên việc đồng nhất về nhân vật cũng như cốt truyện, cách xây dựng là rất khó, điều đó nâng The Avengers trở thành một siêu phẩm hứa hẹn sẽ thu hút bất kỳ tín đồ nào của dòng phim này.
down:

Mã:
[/URL][URL]http://www.fshare.vn/file/T80JTHD3FT/[/URL]

bản 600MB:

subtitles:

Mã:
http://subscene.com/vietnamese/The-Avengers/subtitle-578665.aspx
 

Bài xem nhiều