• Hãy ủng hộ PhienBanMoi.Com bằng cách LIKE trang FANPAGE , GOOGLE+ dưới mỗi bài viết hoặc chia sẻ website nếu thấy hữu ích. Trân trọng cảm ơn!
  • [Thông Báo] Tuyển thành viên viết bài KIẾM TIỀN trên PhienBanMoi.Com


    Nhằm mục đích phát triển Phienbanmoi.com hơn nữa, có thêm các bài viết thông tin thực sự hữu ích từ những thành viên tích cực. BQT đã quyến định tạo ra cơ hội kiếm tiền từ các bài viết được đăng tải và chia sẻ trên diễn đàn

Phim The Mummy 2017 1080p KORSUB HDRip x264 AAC2.0-STUTTERSHIT | Xác Ướp

gianlan123

Moderator
Thành viên BQT
#1
The Mummy 2017 1080p KORSUB HDRip x264 AAC2.0-STUTTERSHIT
Xác Ướp







Mã:
Video
ID                                       : 1
Format                                   : AVC
Format/Info                              : Advanced Video Codec
Format profile                           : High@L4.1
Format settings, CABAC                   : Yes
Format settings, ReFrames                : 4 frames
Codec ID                                 : avc1
Codec ID/Info                            : Advanced Video Coding
Duration                                 : 1 h 50 min
Bit rate                                 : 5 107 kb/s
Width                                    : 1 920 pixels
Height                                   : 800 pixels
Display aspect ratio                     : 2.40:1
Frame rate mode                          : Constant
Frame rate                               : 30.000 FPS
Color space                              : YUV
Chroma subsampling                       : 4:2:0
Bit depth                                : 8 bits
Scan type                                : Progressive
Bits/(Pixel*Frame)                       : 0.111
Stream size                              : 3.89 GiB (96%)
Title                                    : The.Mummy.2017.1080p.KORSUB.HDRip.x264.AAC2.0-STUTTERSHIT
Writing library                          : x264 core 142 r2479 dd79a61
Encoding settings                        : cabac=1 / ref=1 / deblock=1:0:0 / analyse=0x3:0x113 / me=hex / subme=2 / psy=1 / psy_rd=1.00:0.00 / mixed_ref=0 / me_range=16 / chroma_me=1 / trellis=0 / 8x8dct=1 / cqm=0 / deadzone=21,11 / fast_pskip=1 / chroma_qp_offset=0 / threads=12 / lookahead_threads=4 / sliced_threads=0 / nr=0 / decimate=1 / interlaced=0 / bluray_compat=0 / constrained_intra=0 / bframes=3 / b_pyramid=2 / b_adapt=1 / b_bias=0 / direct=1 / weightb=1 / open_gop=0 / weightp=1 / keyint=300 / keyint_min=30 / scenecut=40 / intra_refresh=0 / rc_lookahead=10 / rc=abr / mbtree=1 / bitrate=5107 / ratetol=1.0 / qcomp=0.60 / qpmin=0 / qpmax=69 / qpstep=4 / vbv_maxrate=62500 / vbv_bufsize=78125 / nal_hrd=none / filler=0 / ip_ratio=1.40 / aq=1:1.00
Color range                              : Limited
Color primaries                          : BT.709
Transfer characteristics                 : BT.709
Matrix coefficients                      : BT.709

Audio
ID                                       : 2
Format                                   : AAC
Format/Info                              : Advanced Audio Codec
Format profile                           : LC
Codec ID                                 : 40
Duration                                 : 1 h 50 min
Bit rate mode                            : Constant
Bit rate                                 : 224 kb/s
Channel(s)                               : 2 channels
Channel positions                        : Front: L R
Sampling rate                            : 48.0 kHz
Frame rate                               : 46.875 FPS (1024 spf)
Compression mode                         : Lossy
Stream size                              : 177 MiB (4%)
Title                                    : The.Mummy.2017.1080p.KORSUB.HDRip.x264.AAC2.0-STUTTERSHIT
Default                                  : Yes
Alternate group                          : 1



Tưởng đã yên nghỉ vùi sâu trong một ngôi mộ sâu dưới sa mạc khủng khiếp, một nữ hoàng thời cổ đại (do Sofia Boutella trong Kingsman: The Secret Service và Star Trek Beyond thủ vai), người mà số phận đã bị cướp đi một cách tàn nhẫn, nay thức tỉnh lại vào thời đại ngày nay và mang theo cùng với cô ấy là những điều tăm tối kinh hãi và dã tâm đúc kết từ hàng nghìn năm trước với mục đích chống lại loài người.

Từ những cồn cát ở Trung Đông đến các mê cung ẩn bí mật ngay dưới lòng thành phố London ngày nay, Xác Ướp mang lại các trường đoạn gay cấn giật gân trong một bối cảnh rộng lớn, đồng thời mở ra một thế giới điện ảnh mới của các vị thần và quái vật.






 

Bài xem nhiều