• Hãy ủng hộ PhienBanMoi.Com bằng cách LIKE trang FANPAGE , GOOGLE+ dưới mỗi bài viết hoặc chia sẻ website nếu thấy hữu ích. Trân trọng cảm ơn!
  • [Thông Báo] Tuyển thành viên viết bài KIẾM TIỀN trên PhienBanMoi.Com


    Nhằm mục đích phát triển Phienbanmoi.com hơn nữa, có thêm các bài viết thông tin thực sự hữu ích từ những thành viên tích cực. BQT đã quyến định tạo ra cơ hội kiếm tiền từ các bài viết được đăng tải và chia sẻ trên diễn đàn

Clip Tổng hợp hài tết 2015 phần 2

dvson185

Moderator
Thành viên BQT
Tham gia
17/4/14
Bài viết
3,809
Thích
4,554
Nơi ở
Hà Nội
#1
1.Thần Kê Thánh Cẩu ~ Hài Tết 2015



Phim hài Tết 2015 Thần kê, Thánh cẩu có sự tham gia của các danh hài ở hai miền Nam, Bắc như: Quốc Anh, Hồng Vân, Quang Thắng, Quang Tèo, Hán Văn Tình, Kim Dung, diễn viên Lan Phương… Thần kê, Thánh cẩu dài 45 phút kể về đôi vợ chồng nông dân trẻ (Trí - Nở) nghèo rớt, trong nhà có nuôi một con gà tre và một con chó. Một buổi sáng, con gà tre bỗng đứng ở đầu giường cất tiếng gáy te te, liền đó con chó tha lôi về nhà hai cái vỏ chai nhựa, gã chồng nhặt lên đọc thì ra là vỏ chai nước ngọt. Hai vợ chồng cho là có điềm lạ linh ứng, gọi hai con vật nuôi nhà mình là “Thần kê”, “Thánh cẩu”, và liền tìm mua hai chai nước kia về sử dụng. Quả nhiên nước có tác dụng tốt vô cùng cho hai vợ chồng. Đặc biệt cô vợ đang xấu ma chê quỷ hờn bỗng da dẻ tươi nhuận, trở thành người đàn bà đẹp nhất làng.

Mã:
Format                      : MPEG-4
Format profile              : Base Media
Codec ID                    : isom
File size                   : 443 MiB
Duration                    : 47mn 4s
Overall bit rate mode       : Variable
Overall bit rate            : 1 316 Kbps
Encoded date                : UTC 1970-01-01 00:00:00
Tagged date                 : UTC 1970-01-01 00:00:00
Writing application         : AVM.EXE

Video
ID                          : 1
Format                      : AVC
Format/Info                 : Advanced Video Codec
Format profile              : Main@L3.1
Format settings, CABAC      : Yes
Format settings, ReFrames   : 3 frames
Codec ID                    : avc1
Codec ID/Info               : Advanced Video Coding
Duration                    : 47mn 4s
Bit rate                    : 1 186 Kbps
Width                       : 1 280 pixels
Height                      : 720 pixels
Display aspect ratio        : 16:9
Frame rate mode             : Constant
Frame rate                  : 30.000 fps
Standard                    : NTSC
Color space                 : YUV
Chroma subsampling          : 4:2:0
Bit depth                   : 8 bits
Scan type                   : Progressive
Bits/(Pixel*Frame)          : 0.043
Stream size                 : 399 MiB (90%)
Encoded date                : UTC 1970-01-01 00:00:00
Tagged date                 : UTC 1970-01-01 00:00:00
Color range                 : Limited

Audio
ID                          : 2
Format                      : AAC
Format/Info                 : Advanced Audio Codec
Format profile              : LC
Codec ID                    : 40
Duration                    : 47mn 4s
Bit rate mode               : Variable
Bit rate                    : 126 Kbps
Channel(s)                  : 2 channels
Channel positions           : Front: L R
Sampling rate               : 44.1 KHz
Compression mode            : Lossy
Stream size                 : 42.3 MiB (10%)
Encoded date                : UTC 1970-01-01 00:00:00
Tagged date                 : UTC 1970-01-01 00:00:00




2. Hài Tết 2015: Thầy Bói Hát 720p HDTV

Nằm trong chương trình vui tết 2015, nghệ sĩ Chiến Thắng tiếp tục tham gia chương trình hài Thầy Bói Hát, đả phá, phê phán tệ mê tín dị đoan, những tiêu cực năm hết tết đến…
Mã:
Format                      : MPEG-4
Format profile              : Base Media / Version 2
Codec ID                    : mp42
File size                   : 2.61 GiB
Duration                    : 2h 33mn
Overall bit rate mode       : Variable
Overall bit rate            : 2 427 Kbps
Encoded date                : UTC 2014-12-27 14:45:02
Tagged date                 : UTC 2014-12-27 14:45:02
gsst                        : 0
gstd                        : 9233740
gssd                        : B0AFCE469HH1419991402609263
gshh                        : r1---sn-i3b7sn7r.googlevideo.com

Video
ID                          : 1
Format                      : AVC
Format/Info                 : Advanced Video Codec
Format profile              : High@L3.1
Format settings, CABAC      : Yes
Format settings, ReFrames   : 1 frame
Format settings, GOP        : M=1, N=60
Codec ID                    : avc1
Codec ID/Info               : Advanced Video Coding
Duration                    : 2h 33mn
Bit rate                    : 2 233 Kbps
Maximum bit rate            : 4 181 Kbps
Width                       : 1 280 pixels
Height                      : 720 pixels
Display aspect ratio        : 16:9
Frame rate mode             : Constant
Frame rate                  : 25.000 fps
Color space                 : YUV
Chroma subsampling          : 4:2:0
Bit depth                   : 8 bits
Scan type                   : Progressive
Bits/(Pixel*Frame)          : 0.097
Stream size                 : 2.40 GiB (92%)
Tagged date                 : UTC 2014-12-27 14:49:45

Audio
ID                          : 2
Format                      : AAC
Format/Info                 : Advanced Audio Codec
Format profile              : LC
Codec ID                    : 40
Duration                    : 2h 33mn
Bit rate mode               : Variable
Bit rate                    : 192 Kbps
Maximum bit rate            : 201 Kbps
Channel(s)                  : 2 channels
Channel positions           : Front: L R
Sampling rate               : 44.1 KHz
Compression mode            : Lossy
Stream size                 : 211 MiB (8%)
Title                       : IsoMedia File Produced by Google, 5-11-2011
Encoded date                : UTC 2014-12-27 14:47:33
Tagged date                 : UTC 2014-12-27 14:49:45


“Chôn Nhời 2” tiếp tục khai thác đời sống riêng của các nhân vật sau phần 1. Trong phim, Bợm - quan phụ mẫu của huyện Bí Tị - lại đắc cử thêm một nhiệm kỳ và đã chuyển nhà mới. Bà mẹ vợ của Bợm bỗng dưng đòi lên ở cùng với gia đình hắn với mục đích thúc giục hai vợ chồng Bợm sinh con. Bà ta áp đặt một chế độ ăn uống, sinh hoạt vô cùng hà khắc với Bợm, cốt làm sao để hắn có con với con gái mình. Bợm tự dưng bị rơi vào cảnh một cổ hai tròng áp bức của vợ và mẹ vợ. Bức xúc không thể chịu nổi, hắn đành phải tìm cách chôn nhời cho hả...​
Mã:
Format                      : MPEG-4[/CENTER]
[CENTER]Format profile              : Base Media / Version 2[/CENTER]
[CENTER]Codec ID                    : mp42[/CENTER]
[CENTER]File size                   : 978 MiB[/CENTER]
[CENTER]Duration                    : 1h 37mn[/CENTER]
[CENTER]Overall bit rate mode       : Variable[/CENTER]
[CENTER]Overall bit rate            : 1 408 Kbps[/CENTER]
[CENTER]Encoded date                : UTC 2015-01-20 17:38:21[/CENTER]
[CENTER]Tagged date                 : UTC 2015-01-20 17:38:21[/CENTER]
[CENTER][/CENTER]
[CENTER]Video[/CENTER]
[CENTER]ID                          : 1[/CENTER]
[CENTER]Format                      : AVC[/CENTER]
[CENTER]Format/Info                 : Advanced Video Codec[/CENTER]
[CENTER]Format profile              : Main@L3.1[/CENTER]
[CENTER]Format settings, CABAC      : Yes[/CENTER]
[CENTER]Format settings, ReFrames   : 3 frames[/CENTER]
[CENTER]Codec ID                    : avc1[/CENTER]
[CENTER]Codec ID/Info               : Advanced Video Coding[/CENTER]
[CENTER]Duration                    : 1h 37mn[/CENTER]
[CENTER]Bit rate                    : 1 280 Kbps[/CENTER]
[CENTER]Width                       : 1 280 pixels[/CENTER]
[CENTER]Height                      : 720 pixels[/CENTER]
[CENTER]Display aspect ratio        : 16:9[/CENTER]
[CENTER]Frame rate mode             : Constant[/CENTER]
[CENTER]Frame rate                  : 30.000 fps[/CENTER]
[CENTER]Standard                    : NTSC[/CENTER]
[CENTER]Color space                 : YUV[/CENTER]
[CENTER]Chroma subsampling          : 4:2:0[/CENTER]
[CENTER]Bit depth                   : 8 bits[/CENTER]
[CENTER]Scan type                   : Progressive[/CENTER]
[CENTER]Bits/(Pixel*Frame)          : 0.046[/CENTER]
[CENTER]Stream size                 : 889 MiB (91%)[/CENTER]
[CENTER]Language                    : English[/CENTER]
[CENTER]Encoded date                : UTC 2015-01-20 17:38:22[/CENTER]
[CENTER]Tagged date                 : UTC 2015-01-20 17:38:22[/CENTER]
[CENTER]Color range                 : Limited[/CENTER]
[CENTER][/CENTER]
[CENTER]Audio[/CENTER]
[CENTER]ID                          : 2[/CENTER]
[CENTER]Format                      : AAC[/CENTER]
[CENTER]Format/Info                 : Advanced Audio Codec[/CENTER]
[CENTER]Format profile              : LC[/CENTER]
[CENTER]Codec ID                    : 40[/CENTER]
[CENTER]Duration                    : 1h 37mn[/CENTER]
[CENTER]Source duration             : 1h 37mn[/CENTER]
[CENTER]Bit rate mode               : Variable[/CENTER]
[CENTER]Bit rate                    : 126 Kbps[/CENTER]
[CENTER]Maximum bit rate            : 426 Kbps[/CENTER]
[CENTER]Channel(s)                  : 2 channels[/CENTER]
[CENTER]Channel positions           : Front: L R[/CENTER]
[CENTER]Sampling rate               : 44.1 KHz[/CENTER]
[CENTER]Compression mode            : Lossy[/CENTER]
[CENTER]Stream size                 : 87.3 MiB (9%)[/CENTER]
[CENTER]Source stream size          : 87.3 MiB (9%)[/CENTER]
[CENTER]Language                    : English[/CENTER]
[CENTER]Encoded date                : UTC 2015-01-20 17:38:22[/CENTER]
[CENTER]Tagged date                 : UTC 2015-01-20 17:38:22[/CENTER]
[CENTER]


4. Chiến Thắng 2015: Từ làng ra phố (Chiến Thắng, Quang Tèo, Trần Bình Trọng)

Trọn bộ hài của Chiến Thắng tết 2015, gồm 4 tập phim:
Tập 1: Bạn đến chơi nhà, Bạn nhậu, Giấc mộng đổi đời
Tập 2: Giải quyết khâu oai, Hết đời râu quặp, Sao em đành quên
Tập 3: Tình cũ không rủ cũng đến, Trộm nhà, Mượn Chồng
Tập 4: Thuốc diệt mối, Vỉa hè chia đôi, Bu nó đi tây
Mã:
Format                      : MPEG-4[/CENTER]
[CENTER]Format profile              : Base Media / Version 2[/CENTER]
[CENTER]Codec ID                    : mp42[/CENTER]
[CENTER]File size                   : 885 MiB[/CENTER]
[CENTER]Duration                    : 1h 4mn[/CENTER]
[CENTER]Overall bit rate mode       : Variable[/CENTER]
[CENTER]Overall bit rate            : 1 921 Kbps[/CENTER]
[CENTER]Encoded date                : UTC 2015-01-16 18:27:56[/CENTER]
[CENTER]Tagged date                 : UTC 2015-01-16 18:27:56[/CENTER]
[CENTER]gsst                        : 0[/CENTER]
[CENTER]gstd                        : 3863358[/CENTER]
[CENTER]gssd                        : B71ABF50BHH1421908038646784[/CENTER]
[CENTER]gshh                        : r8---sn-8qj-nbo6.googlevideo.com[/CENTER]
[CENTER][/CENTER]
[CENTER]Video[/CENTER]
[CENTER]ID                          : 1[/CENTER]
[CENTER]Format                      : AVC[/CENTER]
[CENTER]Format/Info                 : Advanced Video Codec[/CENTER]
[CENTER]Format profile              : High@L3.1[/CENTER]
[CENTER]Format settings, CABAC      : Yes[/CENTER]
[CENTER]Format settings, ReFrames   : 1 frame[/CENTER]
[CENTER]Format settings, GOP        : M=1, N=60[/CENTER]
[CENTER]Codec ID                    : avc1[/CENTER]
[CENTER]Codec ID/Info               : Advanced Video Coding[/CENTER]
[CENTER]Duration                    : 1h 4mn[/CENTER]
[CENTER]Bit rate                    : 1 727 Kbps[/CENTER]
[CENTER]Maximum bit rate            : 5 822 Kbps[/CENTER]
[CENTER]Width                       : 1 280 pixels[/CENTER]
[CENTER]Height                      : 720 pixels[/CENTER]
[CENTER]Display aspect ratio        : 16:9[/CENTER]
[CENTER]Frame rate mode             : Constant[/CENTER]
[CENTER]Frame rate                  : 25.000 fps[/CENTER]
[CENTER]Color space                 : YUV[/CENTER]
[CENTER]Chroma subsampling          : 4:2:0[/CENTER]
[CENTER]Bit depth                   : 8 bits[/CENTER]
[CENTER]Scan type                   : Progressive[/CENTER]
[CENTER]Bits/(Pixel*Frame)          : 0.075[/CENTER]
[CENTER]Stream size                 : 795 MiB (90%)[/CENTER]
[CENTER]Tagged date                 : UTC 2015-01-16 18:30:55[/CENTER]
[CENTER][/CENTER]
[CENTER]Audio[/CENTER]
[CENTER]ID                          : 2[/CENTER]
[CENTER]Format                      : AAC[/CENTER]
[CENTER]Format/Info                 : Advanced Audio Codec[/CENTER]
[CENTER]Format profile              : LC[/CENTER]
[CENTER]Codec ID                    : 40[/CENTER]
[CENTER]Duration                    : 1h 4mn[/CENTER]
[CENTER]Bit rate mode               : Variable[/CENTER]
[CENTER]Bit rate                    : 192 Kbps[/CENTER]
[CENTER]Maximum bit rate            : 201 Kbps[/CENTER]
[CENTER]Channel(s)                  : 2 channels[/CENTER]
[CENTER]Channel positions           : Front: L R[/CENTER]
[CENTER]Sampling rate               : 44.1 KHz[/CENTER]
[CENTER]Compression mode            : Lossy[/CENTER]
[CENTER]Stream size                 : 88.4 MiB (10%)[/CENTER]
[CENTER]Title                       : IsoMedia File Produced by Google, 5-11-2011[/CENTER]
[CENTER]Encoded date                : UTC 2015-01-16 18:29:33[/CENTER]
[CENTER]Tagged date                 : UTC 2015-01-16 18:30:55[/CENTER]
[CENTER]
 

kimno196

Member Chính Thức
Tham gia
30/3/14
Bài viết
18
Thích
3
#3
phan 1 ma co hd nhu nay thi ngon, toan dvd nang qua
 

huukimit

Member Chính Thức
Tham gia
22/12/14
Bài viết
19
Thích
2
#5
Bác thớt ơi, cái định dạng MP4 ở trên ghi ra đĩa DVD kiểu Data thì đầu DVD nó có đọc được để xem không nhỉ?
Hay bác có link DVD share e với!
 

dvson185

Moderator
Thành viên BQT
Tham gia
17/4/14
Bài viết
3,809
Thích
4,554
Nơi ở
Hà Nội
#6
Bác thớt ơi, cái định dạng MP4 ở trên ghi ra đĩa DVD kiểu Data thì đầu DVD nó có đọc được để xem không nhỉ?
Hay bác có link DVD share e với!
muốn ghi mọi loại định dạng video ra dvd để đầu đĩa thông thường đọc được thì bạn dùng convertXtodvd 5 cức đơn giản , bạn có thể tải ở đây
http://phienbanmoi.com/threads/vso-...inal-chuyen-doi-video-sang-dvd-manh-me.17106/
 

Bài xem nhiều

Chia sẻ kiến thức - Download phần mềm