• Hãy ủng hộ PhienBanMoi.Com bằng cách LIKE trang FANPAGE , GOOGLE+ dưới mỗi bài viết hoặc chia sẻ website nếu thấy hữu ích. Trân trọng cảm ơn!
  • [Thông Báo] Tuyển thành viên viết bài KIẾM TIỀN trên PhienBanMoi.Com


    Nhằm mục đích phát triển Phienbanmoi.com hơn nữa, có thêm các bài viết thông tin thực sự hữu ích từ những thành viên tích cực. BQT đã quyến định tạo ra cơ hội kiếm tiền từ các bài viết được đăng tải và chia sẻ trên diễn đàn

Phim Tổng hợp Lan Kwai Fong 720p - Lan Quế Phường 18+

dvson185

Moderator
Thành viên BQT
Tham gia
17/4/14
Bài viết
3,949
Thích
4,698
Nơi ở
Hà Nội
#1
1. Lan Kwai Fong (2011) 720p Blu-ray DTS x264-CHD



Mã:
Đây là 1 bộ [URL='http://phim3s.net/'][B]phim[/B][/URL] tâm lý mới sản xuất của điện ảnh HK: thác loạn, nóng bỏng, khiêu khích...và tất nhiên, với 1h36m phim thì sẽ không chỉ có những cảnh hở hang mà có lẽ còn cả những giọt nước mắt...

Mã:
Format                      : Matroska
Format version              : Version 2
File size                   : 5.51 GiB
Duration                    : 1h 36mn
Overall bit rate            : 8 150 Kbps
Encoded date                : UTC 2011-12-18 03:03:52
Writing application         : mkvmerge v4.0.0 ('The Stars were mine') 编译于 Jun  6 2010 16:18:42
Writing library             : libebml v1.0.0 + libmatroska v1.0.0

Video
ID                          : 1
Format                      : AVC
Format/Info                 : Advanced Video Codec
Format profile              : High@L4.1
Format settings, CABAC      : Yes
Format settings, ReFrames   : 9 frames
Codec ID                    : V_MPEG4/ISO/AVC
Duration                    : 1h 36mn
Bit rate                    : 6 001 Kbps
Width                       : 1 280 pixels
Height                      : 720 pixels
Display aspect ratio        : 16:9
Frame rate mode             : Constant
Frame rate                  : 24.000 fps
Color space                 : YUV
Chroma subsampling          : 4:2:0
Bit depth                   : 8 bits
Scan type                   : Progressive
Bits/(Pixel*Frame)          : 0.271
Stream size                 : 3.94 GiB (72%)
Writing library             : x264 core 115 r2008 4c552d8
Encoding settings           : cabac=1 / ref=9 / deblock=1:-3:-3 / analyse=0x3:0x113 / me=umh / subme=10 / psy=1 / psy_rd=1.10:0.15 / mixed_ref=1 / me_range=32 / chroma_me=1 / trellis=2 / 8x8dct=1 / cqm=2 / deadzone=21,11 / fast_pskip=0 / chroma_qp_offset=-2 / threads=12 / sliced_threads=0 / nr=0 / decimate=1 / interlaced=0 / bluray_compat=0 / constrained_intra=0 / bframes=6 / b_pyramid=2 / b_adapt=2 / b_bias=0 / direct=3 / weightb=1 / open_gop=0 / weightp=2 / keyint=250 / keyint_min=24 / scenecut=40 / intra_refresh=0 / rc_lookahead=60 / rc=2pass / mbtree=1 / bitrate=6001 / ratetol=1.0 / qcomp=0.60 / qpmin=1 / qpmax=63 / qpstep=4 / cplxblur=20.0 / qblur=0.5 / vbv_maxrate=40000 / vbv_bufsize=30000 / nal_hrd=none / ip_ratio=1.40 / aq=1:0.80
Language                    : English
Default                     : No
Forced                      : No

Audio #1
ID                          : 2
Format                      : DTS
Format/Info                 : Digital Theater Systems
Mode                        : 16
Format settings, Endianness : Big
Codec ID                    : A_DTS
Duration                    : 1h 36mn
Bit rate mode               : Constant
Bit rate                    : 1 509 Kbps
Channel(s)                  : 6 channels
Channel positions           : Front: L C R, Side: L R, LFE
Sampling rate               : 48.0 KHz
Bit depth                   : 24 bits
Compression mode            : Lossy
Stream size                 : 1.02 GiB (19%)
Title                       : Cantonese DTS-HDMA core 5.1 1509 Kbps
Language                    : Chinese
Default                     : No
Forced                      : No

Audio #2
ID                          : 3
Format                      : AC-3
Format/Info                 : Audio Coding 3
Mode extension              : CM (complete main)
Format settings, Endianness : Big
Codec ID                    : A_AC3
Duration                    : 1h 36mn
Bit rate mode               : Constant
Bit rate                    : 640 Kbps
Channel(s)                  : 6 channels
Channel positions           : Front: L C R, Side: L R, LFE
Sampling rate               : 48.0 KHz
Bit depth                   : 16 bits
Compression mode            : Lossy
Stream size                 : 443 MiB (8%)
Title                       : mandarin AC3 5.1
Language                    : Chinese
Default                     : No
Forced                      : No
[/B][/CENTER]
[B][CENTER][B]







2. Lan Kwai Fong 2 (2012) 720p BluRay DTS 2Audio x264-CHD






Mã:
Tiếp theo thành công của Lan Quế Phường 1, Phần 2 này hứa hẹn sẽ đem đến cho các bạn những giây phút lôi cuốn và hấp dẫn của phần 2 này. Phim nói về cuộc sống sai lầm truy lạc của một tầng lớp trai gái của thế kỷ 21.[/B][/B][/CENTER]
[B][CENTER][B][B]Chiều 24/7, trailer đầu tiên của bộ phim điện ảnh Hỷ ái dạ bồ 2 đã chính thức được công bố trên các phương tiện thông tin đại chúng. Ngay sau đó, nó đã được lan truyền với tốc độ nhanh tới "chóng mặt" và trở thành chủ đề thảo luận sôi nổi của giới trẻ Trung Quốc. Điểm gây chú ý đầu tiên là sự xuất hiện của "thiên thần sexy" Trần Tĩnh Nghĩa với trang phục khá "mát mẻ": hầu hết là bikini và áo 2 dây, váy siêu ngắn. Gương mặt trong sáng từng được mệnh danh là Tiểu long nữ của Hồng Kông nay đã "lột xác" hoàn toàn với hình ảnh quyến rũ tột cùng. Bên cạnh đó, tần xuất và số lượng cảnh quay tình ái cuồng nhiệt được đạo diễn Tiền Quốc Vỹ mạnh tay khai thác, khiến người xem đi từ mừng rỡ đến... ngại ngùng. Và điều đáng nói hơn cả là bối cảnh nội dung nhạy cảm không chỉ diễn ra trên giường mà còn được sáng tạo một cách táo bạo ở ban công, trước cửa sổ của tòa nhà cao tầng lắp kính trong suốt hay trong bếp nấu ăn.


Mã:
Format                      : Matroska
Format version              : Version 2
File size                   : 4.37 GiB
Duration                    : 1h 39mn
Overall bit rate            : 6 272 Kbps
Encoded date                : UTC 2012-11-16 16:19:40
Writing application         : mkvmerge v5.7.0 ('The Whirlwind') built on Jul  8 2012 20:08:51
Writing library             : libebml v1.2.3 + libmatroska v1.3.0

Video
ID                          : 1
Format                      : AVC
Format/Info                 : Advanced Video Codec
Format profile              : High@L4.1
Format settings, CABAC      : Yes
Format settings, ReFrames   : 10 frames
Muxing mode                 : Header stripping
Codec ID                    : V_MPEG4/ISO/AVC
Duration                    : 1h 39mn
Bit rate                    : 4 087 Kbps
Width                       : 1 280 pixels
Height                      : 536 pixels
Display aspect ratio        : 2.40:1
Frame rate mode             : Constant
Frame rate                  : 24.000 fps
Color space                 : YUV
Chroma subsampling          : 4:2:0
Bit depth                   : 8 bits
Scan type                   : Progressive
Bits/(Pixel*Frame)          : 0.248
Stream size                 : 2.79 GiB (64%)
Title                       : Lan.Kwai.Fong.2.2012
Writing library             : x264 core 125 r2208 d9d2288
Encoding settings           : cabac=1 / ref=10 / deblock=1:-3:-3 / analyse=0x3:0x113 / me=umh / subme=10 / psy=1 / psy_rd=1.00:0.05 / mixed_ref=1 / me_range=32 / chroma_me=1 / trellis=2 / 8x8dct=1 / cqm=0 / deadzone=21,11 / fast_pskip=0 / chroma_qp_offset=-2 / threads=8 / lookahead_threads=1 / sliced_threads=0 / nr=0 / decimate=1 / interlaced=0 / bluray_compat=0 / constrained_intra=0 / bframes=5 / b_pyramid=2 / b_adapt=2 / b_bias=0 / direct=3 / weightb=1 / open_gop=0 / weightp=2 / keyint=250 / keyint_min=24 / scenecut=40 / intra_refresh=0 / rc=2pass / mbtree=0 / bitrate=4087 / ratetol=1.0 / qcomp=0.70 / qpmin=0 / qpmax=69 / qpstep=4 / cplxblur=20.0 / qblur=0.5 / ip_ratio=1.40 / pb_ratio=1.30 / aq=2:0.90
Language                    : Chinese
Default                     : Yes
Forced                      : No

Audio #1
ID                          : 2
Format                      : DTS
Format/Info                 : Digital Theater Systems
Mode                        : 16
Format settings, Endianness : Big
Muxing mode                 : Header stripping
Codec ID                    : A_DTS
Duration                    : 1h 39mn
Bit rate mode               : Constant
Bit rate                    : 1 509 Kbps
Channel(s)                  : 6 channels
Channel positions           : Front: L C R, Side: L R, LFE
Sampling rate               : 48.0 KHz
Bit depth                   : 24 bits
Compression mode            : Lossy
Stream size                 : 1.05 GiB (24%)
Title                       : DTS-CORE 1536K Cantonese
Language                    : Chinese
Default                     : Yes
Forced                      : No

Audio #2
ID                          : 3
Format                      : AC-3
Format/Info                 : Audio Coding 3
Mode extension              : CM (complete main)
Format settings, Endianness : Big
Muxing mode                 : Header stripping
Codec ID                    : A_AC3
Duration                    : 1h 39mn
Bit rate mode               : Constant
Bit rate                    : 640 Kbps
Channel(s)                  : 6 channels
Channel positions           : Front: L C R, Side: L R, LFE
Sampling rate               : 48.0 KHz
Bit depth                   : 16 bits
Compression mode            : Lossy
Stream size                 : 457 MiB (10%)
Title                       : DD5.1 640K Mandarin
Language                    : Chinese
Default                     : No
Forced                      : No

Text #1
ID                          : 4
Format                      : PGS
Muxing mode                 : zlib
Codec ID                    : S_HDMV/PGS
Codec ID/Info               : The same subtitle format used on BDs/HD-DVDs
Title                       : CHS
Language                    : Chinese
Default                     : Yes
Forced                      : No

Text #2
ID                          : 5
Format                      : PGS
Muxing mode                 : zlib
Codec ID                    : S_HDMV/PGS
Codec ID/Info               : The same subtitle format used on BDs/HD-DVDs
Title                       : CHT
Language                    : Chinese
Default                     : No
Forced                      : No

Text #3
ID                          : 6
Format                      : PGS
Muxing mode                 : zlib
Codec ID                    : S_HDMV/PGS
Codec ID/Info               : The same subtitle format used on BDs/HD-DVDs
Title                       : ENG
Language                    : English
Default                     : No
Forced                      : No[/B][/B][/CENTER]
[B][CENTER][B][B]
[/B]












3. Lan Kwai Fong 3 2014 720p BluRay DD5.1 x264-WiKi





Mã:
Lan Quế Phường 3 là phần tiếp tiếp theo của loạt phim ăn khách Lan Quế Phường, phần này nối tiếp thành công của 2 phần trước, đạo diễn Tiền Quốc Vỹ đang gấp rút chuẩn bị thực hiện bộ phim bom tấn ăn khách này từ nhiều tháng trước.[/B][/B][/CENTER]
[B][CENTER]
[B][B]Ngày 11/7 vừa qua buổi casting chọn diển viên để nhận vai cho bộ phim đã chính thức được tổ chức rất hoành tráng. Buổi casting đã có gần 20 người đẹp và siêu mẩu tham gia với mong muốn lọt vào tầm nghắm của đạo diển và nhận được 1 vai diển trong phim. Tất cả các thí sinh trong buổi casting điều mặc bikini để lộ đường cong quyến rủ và vòng 1 căng tròn…[/B][/B][/CENTER]
[B][CENTER]
[B][B]Lan Quế Phường 3 của đạo diễn Tiền Quốc Vỹ sẽ được khởi quay vào tháng 8 và dự định sẽ được phát vào đầu năm 2014 chứ không phải vào dịp giáng sinh như công bố trước đó. Nhằm đem đến cho bộ phim những cảnh quay sống động chân thật nhât, Đạo diễn Tiền Quốc Vỹ đã cất công đến nhiều nước như Thái Lan, Đài Loan, Hàn Quốc để xem cảnh cuộc sống về điêm ở các nơi nổi tiếng trên thế giới nhằm làm tư liệu xây dựng bộ phim[/B][/B]

[B][B]Phim nói về cuộc sống sai lầm truy lạc của một tầng lớp trai gái của thế kỷ 21 ... [/B][/B]

[B][B]Ghi chú: Phim có hình ảnh nhạy cảm, bạo lực & Bưởi Các bạn cân nhắc khi xem.
[/B][/B]



Mã:
TAGLINE...................: Lan Kwai Fong 3
GENRE.....................: Romance
IMDb LINK.................: http://www.imdb.com/title/tt3426810

.Release.Info
ENCODER...................: Jubowo @ WiKi
RELEASE DATE..............: 2014-02-18
RELEASE SIZE..............: 4.37 GiB
SOURCE....................: 1080p Blu-ray AVC DTS-HD MA 5.1-TTG

.Media.Info
RUNTIME...................: 1h:33m:36s
VIDEO CODEC...............: x264 @ 5400 Kbps
RESOLUTION................: 1280x546
DISPLAY ASPECT RATIO......: 2.34:1
FRAME RATE................: 24 fps
AUDiO CODEC...............: Cantonese DD 5.1 @ 640 kbps
AUDiO CODEC...............: Mandarin DD 5.1 @ 640 kbps

.x264.Info
x264 [info]: profile High, level 4.1
x264 [info]: frame I:1204 Avg QP:15.57 size:121428
x264 [info]: frame P:40453 Avg QP:19.19 size: 44134
x264 [info]: frame B:93128 Avg QP:20.07 size: 21133
x264 [info]: consecutive B-frames: 6.7% 7.8% 14.0% 39.8% 15.0% 13.1% 2.2% 0.9% 0.6%[/B][/B][/CENTER]
[B][CENTER][B][B]
[/B]







[/B][/B]​
 

ghedalua

Member Chính Thức
Tham gia
14/1/13
Bài viết
44
Thích
6
Nơi ở
Hà Nội
#2
Đại ka nào up lên 4share giúp em với
Em cam ơn trước. :D
 

Bài xem nhiều

Chia sẻ kiến thức - Download phần mềm