• Hãy ủng hộ PhienBanMoi.Com bằng cách LIKE trang FANPAGE , GOOGLE+ dưới mỗi bài viết hoặc chia sẻ website nếu thấy hữu ích. Trân trọng cảm ơn!
  • [Thông Báo] Tuyển thành viên viết bài KIẾM TIỀN trên PhienBanMoi.Com


    Nhằm mục đích phát triển Phienbanmoi.com hơn nữa, có thêm các bài viết thông tin thực sự hữu ích từ những thành viên tích cực. BQT đã quyến định tạo ra cơ hội kiếm tiền từ các bài viết được đăng tải và chia sẻ trên diễn đàn

Phim Toy Story 1995 1080p BluRay x264-BestHD | Câu Chuyện Đồ Chơi ~ Sub Việt

Toy Story 1995 1080p BluRay x264-BestHD
Câu Chuyện Đồ Chơi





Mã:
Video
ID                                       : 1
Format                                   : AVC
Format/Info                              : Advanced Video Codec
Format profile                           : High@L4.1
Format settings, CABAC                   : Yes
Format settings, ReFrames                : 4 frames
Codec ID                                 : V_MPEG4/ISO/AVC
Duration                                 : 1h 21mn
Bit rate                                 : 6 212 Kbps
Width                                    : 1 920 pixels
Height                                   : 1 080 pixels
Display aspect ratio                     : 16:9
Frame rate mode                          : Constant
Frame rate                               : 23.976 (24000/1001) fps
Color space                              : YUV
Chroma subsampling                       : 4:2:0
Bit depth                                : 8 bits
Scan type                                : Progressive
Bits/(Pixel*Frame)                       : 0.125
Stream size                              : 3.43 GiB (78%)
Writing library                          : x264 core 88 r1462 7fcffde
Encoding settings                        : cabac=1 / ref=4 / deblock=1:0:0 / analyse=0x3:0x113 / me=umh / subme=7 / psy=1 / psy_rd=0.40:0.00 / mixed_ref=1 / me_range=16 / chroma_me=1 / trellis=1 / 8x8dct=1 / cqm=0 / deadzone=21,11 / fast_pskip=0 / chroma_qp_offset=-2 / threads=6 / sliced_threads=0 / nr=0 / decimate=1 / mbaff=0 / constrained_intra=0 / bframes=5 / b_pyramid=2 / b_adapt=1 / b_bias=0 / direct=1 / wpredb=1 / wpredp=2 / keyint=250 / keyint_min=25 / scenecut=40 / intra_refresh=0 / rc_lookahead=40 / rc=2pass / mbtree=1 / bitrate=6212 / ratetol=1.0 / qcomp=0.60 / qpmin=10 / qpmax=51 / qpstep=4 / cplxblur=20.0 / qblur=0.5 / ip_ratio=1.40 / aq=1:0.60
Language                                 : English
Default                                  : Yes
Forced                                   : No

Audio
ID                                       : 2
Format                                   : DTS
Format/Info                              : Digital Theater Systems
Format profile                           : ES Matrix / Core
Mode                                     : 16
Format settings, Endianness              : Big
Codec ID                                 : A_DTS
Duration                                 : 1h 21mn
Bit rate mode                            : Constant
Bit rate                                 : 1 509 Kbps
Channel(s)                               : 7 channels / 6 channels
Channel positions                        : Front: L C R, Side: L R, Back: C, LFE / Front: L C R, Side: L R, LFE
Sampling rate                            : 48.0 KHz
Frame rate                               : 93.750 fps (512 spf)
Bit depth                                : 24 bits
Compression mode                         : Lossy
Stream size                              : 875 MiB (20%)
Title                                    : English DTS 1509kbps
Language                                 : English
Default                                  : Yes
Forced                                   : No

Text
ID                                       : 3
Format                                   : UTF-8
Codec ID                                 : S_TEXT/UTF8
Codec ID/Info                            : UTF-8 Plain Text
Title                                    : English
Language                                 : English
Default                                  : No
Forced                                   : No

Menu
00:00:00.000                             : en:00:00:00.000
00:02:02.247                             : en:00:02:02.247
00:04:00.365                             : en:00:04:00.365
00:06:34.019                             : en:00:06:34.019
00:09:19.267                             : en:00:09:19.267
00:14:16.981                             : en:00:14:16.981
00:20:10.251                             : en:00:20:10.251
00:22:17.211                             : en:00:22:17.211
00:24:24.963                             : en:00:24:24.963
00:26:01.226                             : en:00:26:01.226
00:29:28.934                             : en:00:29:28.934
00:30:09.349                             : en:00:30:09.349
00:35:09.858                             : en:00:35:09.858
00:39:25.405                             : en:00:39:25.405
00:42:59.535                             : en:00:42:59.535
00:43:43.329                             : en:00:43:43.329
00:46:25.699                             : en:00:46:25.699
00:47:20.171                             : en:00:47:20.171
00:49:08.112                             : en:00:49:08.112
00:51:08.524                             : en:00:51:08.524
00:53:49.935                             : en:00:53:49.935
00:56:23.714                             : en:00:56:23.714
00:57:14.765                             : en:00:57:14.765
01:01:41.072                             : en:01:01:41.072
01:02:50.100                             : en:01:02:50.100
01:04:49.093                             : en:01:04:49.093
01:07:58.658                             : en:01:07:58.658
01:13:10.302                             : en:01:13:10.302
01:15:40.077                             : en:01:15:40.077
01:17:08.374                             : en:01:17:08.374



Thế giới đồ chơi của cậu bé Andy bị xáo trộn khi có sự xuất hiện của cảnh sát vũ trụ Buzz Lightyear. Cảm thấy mình bị "thất sủng", anh chàng cao bồi gỗ Woody xô xát với Buzz và cả hai bị rơi vào một cuộc phiêu lưu đầy mạo hiểm.

Câu chuyện nói về thế giới đồ chơi của cậu bé Andy (John Morris lồng tiếng) 6 tuổi với những cảm xúc, xung đột như thế giới của con người. Trong số món đồ chơi vô thiên lủng của Andy, anh chàng cao bồi gỗ Woody (Tom Hanks lồng tiếng) được yêu quý hơn cả trong một thời gian dài. Nhưng từ khi có sự xuất hiện của "cảnh sát vũ trụ" Buzz Lightyear (Tim Allen lồng tiếng), vị trí của Woody dường như thất thủ, anh chàng kiên quyết không cam chịu sự thay đổi này.

Khi Andy đi vắng, cuộc sống của những món đồ chơi trở nên sôi động hơn bao giờ hết. Đặc biệt là sự xô xát giữa Woody và Buzz Lightyear biến thành một cuộc chiến đấu thực sự đến nỗi Buzz vô tình bị rơi ra khỏi cửa sổ. Bị cộng đồng đồ chơi kết tội là đã giết Buzz vì ghen tuông, Woody phải rời khỏi nhà lên đường tìm kiếm anh bạn Buzz. Cả hai gặp đầy rẫy những rắc rối trên đường trở về nhà.

Nguy hiểm nhất đối với cả Buzz và Woody là việc phải đối đầu với anh bạn hàng xóm Sid (Erik von Detten) tàn ác luôn tìm trò tiêu khiển bằng cách vặt tay chân của các món đồ chơi rồi lắp ráp lại như cũ. Kè kè bên cạnh Sid còn có chú chó Scud đánh hơi rất thính. Bên nhau trong những lúc tưởng như cái chết đang lơ lửng trên đầu, cả hai mới nhận ra rằng chỉ có tình bạn, sự thông cảm và chia sẻ lẫn nhau mới giúp chúng thoát chết.





 

Bình luận