• Hãy ủng hộ PhienBanMoi.Com bằng cách LIKE trang FANPAGE , GOOGLE+ dưới mỗi bài viết hoặc chia sẻ website nếu thấy hữu ích. Trân trọng cảm ơn!
  • [Thông Báo] Tuyển thành viên viết bài KIẾM TIỀN trên PhienBanMoi.Com


    Nhằm mục đích phát triển Phienbanmoi.com hơn nữa, có thêm các bài viết thông tin thực sự hữu ích từ những thành viên tích cực. BQT đã quyến định tạo ra cơ hội kiếm tiền từ các bài viết được đăng tải và chia sẻ trên diễn đàn

Phim Toy Story 2 1999 1080p BluRay x264-BestHD | Câu Chuyện Đồ Chơi 2 ~ Sub Việt

Toy Story 2 1999 1080p BluRay x264-BestHD
Câu Chuyện Đồ Chơi 2





Mã:
Video
ID                                       : 1
Format                                   : AVC
Format/Info                              : Advanced Video Codec
Format profile                           : High@L4.1
Format settings, CABAC                   : Yes
Format settings, ReFrames                : 4 frames
Codec ID                                 : V_MPEG4/ISO/AVC
Duration                                 : 1h 32mn
Bit rate                                 : 8 650 Kbps
Width                                    : 1 920 pixels
Height                                   : 1 080 pixels
Display aspect ratio                     : 16:9
Frame rate mode                          : Constant
Frame rate                               : 23.976 (24000/1001) fps
Color space                              : YUV
Chroma subsampling                       : 4:2:0
Bit depth                                : 8 bits
Scan type                                : Progressive
Bits/(Pixel*Frame)                       : 0.174
Stream size                              : 5.45 GiB (83%)
Writing library                          : x264 core 88 r1462 7fcffde
Encoding settings                        : cabac=1 / ref=4 / deblock=1:0:0 / analyse=0x3:0x113 / me=umh / subme=7 / psy=1 / psy_rd=0.40:0.00 / mixed_ref=1 / me_range=16 / chroma_me=1 / trellis=1 / 8x8dct=1 / cqm=0 / deadzone=21,11 / fast_pskip=0 / chroma_qp_offset=-2 / threads=6 / sliced_threads=0 / nr=0 / decimate=1 / mbaff=0 / constrained_intra=0 / bframes=5 / b_pyramid=2 / b_adapt=1 / b_bias=0 / direct=1 / wpredb=1 / wpredp=2 / keyint=250 / keyint_min=25 / scenecut=40 / intra_refresh=0 / rc_lookahead=40 / rc=2pass / mbtree=1 / bitrate=8650 / ratetol=1.0 / qcomp=0.60 / qpmin=10 / qpmax=51 / qpstep=4 / cplxblur=20.0 / qblur=0.5 / ip_ratio=1.40 / aq=1:0.60
Language                                 : English
Default                                  : Yes
Forced                                   : No

Audio
ID                                       : 2
Format                                   : DTS
Format/Info                              : Digital Theater Systems
Format profile                           : ES Matrix / Core
Mode                                     : 16
Format settings, Endianness              : Big
Codec ID                                 : A_DTS
Duration                                 : 1h 32mn
Bit rate mode                            : Constant
Bit rate                                 : 1 509 Kbps
Channel(s)                               : 7 channels / 6 channels
Channel positions                        : Front: L C R, Side: L R, Back: C, LFE / Front: L C R, Side: L R, LFE
Sampling rate                            : 48.0 KHz
Frame rate                               : 93.750 fps (512 spf)
Bit depth                                : 24 bits
Compression mode                         : Lossy
Stream size                              : 998 MiB (15%)
Title                                    : English DTS 1509kbps
Language                                 : English
Default                                  : Yes
Forced                                   : No

Text
ID                                       : 3
Format                                   : UTF-8
Codec ID                                 : S_TEXT/UTF8
Codec ID/Info                            : UTF-8 Plain Text
Title                                    : English
Language                                 : English
Default                                  : No
Forced                                   : No

Menu
00:00:00.000                             : en:00:00:00.000
00:01:23.583                             : en:00:01:23.583
00:04:48.288                             : en:00:04:48.288
00:07:35.789                             : en:00:07:35.789
00:10:40.932                             : en:00:10:40.932
00:11:54.797                             : en:00:11:54.797
00:12:47.100                             : en:00:12:47.100
00:15:29.929                             : en:00:15:29.929
00:18:15.845                             : en:00:18:15.845
00:20:17.591                             : en:00:20:17.591
00:24:14.036                             : en:00:24:14.036
00:25:54.386                             : en:00:25:54.386
00:30:32.122                             : en:00:30:32.122
00:31:48.448                             : en:00:31:48.448
00:32:51.469                             : en:00:32:51.469
00:36:44.994                             : en:00:36:44.994
00:39:09.138                             : en:00:39:09.138
00:39:53.057                             : en:00:39:53.057
00:41:06.339                             : en:00:41:06.339
00:42:26.210                             : en:00:42:26.210
00:44:41.345                             : en:00:44:41.345
00:46:58.566                             : en:00:46:58.566
00:53:23.951                             : en:00:53:23.951
00:56:19.918                             : en:00:56:19.918
01:01:10.041                             : en:01:01:10.041
01:02:14.272                             : en:01:02:14.272
01:04:23.902                             : en:01:04:23.902
01:08:00.409                             : en:01:08:00.409
01:09:52.188                             : en:01:09:52.188
01:12:27.468                             : en:01:12:27.468
01:14:58.494                             : en:01:14:58.494
01:17:28.310                             : en:01:17:28.310
01:19:46.281                             : en:01:19:46.281
01:21:35.807                             : en:01:21:35.807
01:25:48.977                             : en:01:25:48.977



Thời gian trôi qua, đã đến lúc cậu chủ Andy đi đến trại hè của mình để lại đống đồ chơi và những trò nghịch ngợm của chúng. Lần này người bị bắt cóc lại là anh chàng Woody đáng thương của chúng ta. Có ai ngờ anh chàng cao bồi cũ kỹ này lại là một "sản phẩm" vô cùng giá trị và lọt vào mắt xanh của một tên sưu tầm đồ chơi sành sỏi. Tất nhiên, anh hùng không gian của chúng ta, Buzz Lightyear cùng với ngài Khoai tây. Heard, chó Lò Xo, Rex và Hamm đã trốn thoát khỏi nhà Andy để giải cứu anh chàng Woody xui xẻo. Và trên chặng đường này, họ cũng tìm thêm được những người bạn tuyệt vời cho mình.





 

Bình luận