• Hãy ủng hộ PhienBanMoi.Com bằng cách LIKE trang FANPAGE , GOOGLE+ dưới mỗi bài viết hoặc chia sẻ website nếu thấy hữu ích. Trân trọng cảm ơn!
  • [Thông Báo] Tuyển thành viên viết bài KIẾM TIỀN trên PhienBanMoi.Com


    Nhằm mục đích phát triển Phienbanmoi.com hơn nữa, có thêm các bài viết thông tin thực sự hữu ích từ những thành viên tích cực. BQT đã quyến định tạo ra cơ hội kiếm tiền từ các bài viết được đăng tải và chia sẻ trên diễn đàn

Phim [vietsub]_Big Hero 6 2014 ViE 1080p WEB-DL DD 5.1 H264-RARBG - Biệt đội Big Hero 6

dvson185

Moderator
Thành viên BQT
Tham gia
17/4/14
Bài viết
3,840
Thích
4,624
Nơi ở
Hà Nội
#1


Biệt Đội Big Hero 6 là bộ phim hoạt hình mới nhất của hãng Walt Disney trong năm 2014. Phim thuộc thể loại viễn tưởng lấy bối cảnh tại 1 thành phố giả tưởng có tên gọi San Fransokyo xinh đẹp và cực kỳ hiện đại. Nhân vật chính trong phim là cậu bé Hiro Hamada, một thiên tài chế tạo robot đang sống cùng chú robot Bay Max do chính cậu chế tạo, chú robot này có thân hình đồ sộ như một hình nộm cao su được bơm căng. Hiro quyết định tự mình cùng Bay Max tiến hành điều tra, với sự giúp đỡ của anh trai cùng những người bạn mang siêu năng lực khác, để rồi khám phá ra một âm mưu hủy diệt cả thành phố. Lúc này, chính quyền đành phải cầu viện nhóm siêu anh hùng nhí ra tay cứu vãn tình thế.
Mã:
Format                      : Matroska
Format version              : Version 4 / Version 2
File size                   : 3.36 GiB
Duration                    : 1h 41mn
Overall bit rate            : 4 727 Kbps
Movie name                  : Big.Hero.6.2014.ViE.1080p.WEB-DL.DD5.1.H264-RARBG
Encoded date                : UTC 2015-02-03 13:25:40
Writing application         : mkvmerge v7.2.0 ('On Every Street') 32bit built on Sep 13 2014 15:42:11
Writing library             : libebml v1.3.0 + libmatroska v1.4.1
Attachements                : cover_land.jpg / small_cover.jpg / small_cover_land.jpg / cover.jpg
DURATION                    : 01:41:51.520000000
NUMBER_OF_FRAMES            : 190985
NUMBER_OF_BYTES             : 342245120
_STATISTICS_WRITING_APP     : mkvmerge v7.2.0 ('On Every Street') 32bit built on Sep 13 2014 15:42:11
_STATISTICS_WRITING_DATE_UT : 2015-02-03 13:25:40
_STATISTICS_TAGS            : BPS DURATION NUMBER_OF_FRAMES NUMBER_OF_BYTES

Video
ID                          : 1
Format                      : AVC
Format/Info                 : Advanced Video Codec
Format profile              : High@L4.0
Format settings, CABAC      : Yes
Format settings, ReFrames   : 5 frames
Codec ID                    : V_MPEG4/ISO/AVC
Duration                    : 1h 41mn
Bit rate                    : 3 801 Kbps
Width                       : 1 916 pixels
Height                      : 800 pixels
Display aspect ratio        : 2.40:1
Frame rate mode             : Constant
Frame rate                  : 23.976 fps
Color space                 : YUV
Chroma subsampling          : 4:2:0
Bit depth                   : 8 bits
Scan type                   : Progressive
Bits/(Pixel*Frame)          : 0.103
Stream size                 : 2.70 GiB (80%)
Title                       : Big.Hero.6.2014.1080p.WEB-DL.DD5.1.H264-RARBG
Language                    : English
Default                     : Yes
Forced                      : No
Color primaries             : BT.709
Transfer characteristics    : BT.709
Matrix coefficients         : BT.709
Color range                 : Limited

Audio #1
ID                          : 2
Format                      : AC-3
Format/Info                 : Audio Coding 3
Mode extension              : CM (complete main)
Format settings, Endianness : Big
Codec ID                    : A_AC3
Duration                    : 1h 41mn
Bit rate mode               : Constant
Bit rate                    : 384 Kbps
Channel(s)                  : 6 channels
Channel positions           : Front: L C R, Side: L R, LFE
Sampling rate               : 48.0 KHz
Bit depth                   : 16 bits
Compression mode            : Lossy
Stream size                 : 280 MiB (8%)
Title                       : Big.Hero.6.2014.1080p.WEB-DL.DD5.1.H264-RARBG
Language                    : English
Default                     : Yes
Forced                      : No

Audio #2
ID                          : 4
Format                      : AC-3
Format/Info                 : Audio Coding 3
Mode extension              : CM (complete main)
Format settings, Endianness : Big
Codec ID                    : A_AC3
Duration                    : 1h 41mn
Bit rate mode               : Constant
Bit rate                    : 448 Kbps
Channel(s)                  : 2 channels
Channel positions           : Front: L R
Sampling rate               : 48.0 KHz
Bit depth                   : 16 bits
Compression mode            : Lossy
Stream size                 : 326 MiB (9%)
Title                       : Tk JadViE
Language                    : Vietnamese
Default                     : No
Forced                      : No

Text
ID                          : 3
Format                      : UTF-8
Codec ID                    : S_TEXT/UTF8
Codec ID/Info               : UTF-8 Plain Text
Language                    : English
Default                     : Yes
Forced                      : No


 
Sửa lần cuối:

dvson185

Moderator
Thành viên BQT
Tham gia
17/4/14
Bài viết
3,840
Thích
4,624
Nơi ở
Hà Nội
#4
nếu muốn thuyết minh thì vào play => audio=> chọn audio viet để có thuyết minh
 

lomcomluxubu

Member Chính Thức
Tham gia
8/9/14
Bài viết
28
Thích
6
#5
Hix . Ông cố BK pro nào trên kia có phải là hacker không vậy ><"
Lỡ nhấp dô rồi , không ra link gì hết , mình có phải là nạn nhân không ...!!!
Please please ... ><"'
 

huyhoang92nd

Member Chính Thức
Tham gia
5/11/13
Bài viết
28
Thích
3
#7
phim này mãi chưa ra bluray nhỉ, hóng tiếp :surrender:
 

JackFrost2013

Member Chính Thức
Tham gia
21/7/13
Bài viết
8
Thích
0
#9
Film nghe nói hay lắm.Down về thưởng thức mới được.Thanks!
 

Bài xem nhiều

Chia sẻ kiến thức - Download phần mềm