• Hãy ủng hộ PhienBanMoi.Com bằng cách LIKE trang FANPAGE , GOOGLE+ dưới mỗi bài viết hoặc chia sẻ website nếu thấy hữu ích. Trân trọng cảm ơn!
  • [Thông Báo] Tuyển thành viên viết bài KIẾM TIỀN trên PhienBanMoi.Com


    Nhằm mục đích phát triển Phienbanmoi.com hơn nữa, có thêm các bài viết thông tin thực sự hữu ích từ những thành viên tích cực. BQT đã quyến định tạo ra cơ hội kiếm tiền từ các bài viết được đăng tải và chia sẻ trên diễn đàn

Phim X-Men The Last Stand 2006 2160p BluRay x265 10bit SDR.DTS-HD.MA.6.1-SWTYBLZ | Dị Nhân 3 : Phán Xét Cuối Cùng~ Sub Việt

X-Men The Last Stand 2006 2160p BluRay x265 10bit SDR.DTS-HD.MA.6.1-SWTYBLZ

Dị Nhân 3 : Phán Xét Cuối Cùng~ Sub Việt





Mã:
                   Video
ID : 1
Format : HEVC
Format/Info : High Efficiency Video Coding
Format profile : Main 10@L5.1@High
Codec ID : V_MPEGH/ISO/HEVC
Duration : 1 h 44 min
Bit rate : 46.9 Mb/s
Width : 3 840 pixels
Height : 1 600 pixels
Display aspect ratio : 2.40:1
Frame rate mode : Constant
Frame rate : 23.976 (24000/1001) FPS
Color space : YUV
Chroma subsampling : 4:2:0
Bit depth : 10 bits
Bits/(Pixel*Frame) : 0.318
Stream size : 34.1 GiB (89%)
Title : X-Men.The.Last.Stand.2006.2160p.BluRay.x265.10bit.SDR.DTS-HD.MA.6.1-SWTYBLZ
Writing library : x265 2.8 54-79c76e42cb28:[Windows][GCC 7.3.1][64 bit] 10bit
Encoding settings : cpuid=1111039 / frame-threads=16 / numa-pools=20 / wpp / no-pmode / no-pme / no-psnr / no-ssim / log-level=2 / input-csp=1 / input-res=3840x1600 / interlace=0 / total-frames=0 / level-idc=51 / high-tier=1 / uhd-bd=0 / ref=3 / no-allow-non-conformance / repeat-headers / annexb / aud / hrd / info / hash=0 / no-temporal-layers / no-open-gop / min-keyint=1 / keyint=24 / gop-lookahead=0 / bframes=4 / b-adapt=2 / b-pyramid / bframe-bias=0 / rc-lookahead=25 / lookahead-slices=4 / scenecut=40 / radl=0 / no-intra-refresh / ctu=64 / min-cu-size=8 / no-rect / no-amp / max-tu-size=32 / tu-inter-depth=1 / tu-intra-depth=1 / limit-tu=0 / rdoq-level=0 / dynamic-rd=0.00 / no-ssim-rd / signhide / no-tskip / nr-intra=0 / nr-inter=0 / no-constrained-intra / strong-intra-smoothing / max-merge=2 / limit-refs=3 / no-limit-modes / me=1 / subme=2 / merange=57 / temporal-mvp / weightp / no-weightb / no-analyze-src-pics / deblock=0:0 / no-sao / no-sao-non-deblock / rd=3 / no-early-skip / rskip / no-fast-intra / no-tskip-fast / no-cu-lossless / no-b-intra / no-splitrd-skip / rdpenalty=0 / psy-rd=2.00 / psy-rdoq=0.00 / no-rd-refine / no-lossless / cbqpoffs=0 / crqpoffs=0 / rc=crf / crf=18.0 / qcomp=0.60 / qpstep=4 / stats-write=0 / stats-read=0 / vbv-maxrate=160000 / vbv-bufsize=160000 / vbv-init=0.9 / crf-max=0.0 / crf-min=0.0 / ipratio=1.40 / pbratio=1.30 / aq-mode=1 / aq-strength=1.00 / cutree / zone-count=0 / no-strict-cbr / qg-size=32 / no-rc-grain / qpmax=69 / qpmin=0 / no-const-vbv / sar=1 / overscan=0 / videoformat=5 / range=0 / colorprim=2 / transfer=2 / colormatrix=2 / chromaloc=0 / display-window=0 / max-cll=0,0 / min-luma=0 / max-luma=1023 / log2-max-poc-lsb=8 / vui-timing-info / vui-hrd-info / slices=1 / opt-qp-pps / opt-ref-list-length-pps / no-multi-pass-opt-rps / scenecut-bias=0.05 / no-opt-cu-delta-qp / no-aq-motion / no-hdr / no-hdr-opt / no-dhdr10-opt / no-idr-recovery-sei / analysis-reuse-level=5 / scale-factor=0 / refine-intra=0 / refine-inter=0 / refine-mv=0 / no-limit-sao / ctu-info=0 / no-lowpass-dct / refine-mv-type=0 / copy-pic=1 / max-ausize-factor=1.0 / no-dynamic-refine / no-single-sei
Default : Yes
Forced : No

Audio #1
ID : 2
Format : DTS
Format/Info : Digital Theater Systems
Format profile : MA / ES Discrete / Core
Codec ID : A_DTS
Duration : 1 h 44 min
Bit rate mode : Variable / Constant / Constant
Bit rate : 4 738 kb/s / 1 509 kb/s / 1 509 kb/s
Channel(s) : 7 channels / 7 channels / 6 channels
Channel positions : Front: L C R, Side: L R, Back: C, LFE / Front: L C R, Side: L R, Back: C, LFE / Front: L C R, Side: L R, LFE
Sampling rate : 48.0 kHz
Frame rate : 93.750 FPS (512 SPF)
Bit depth : 24 bits
Compression mode : Lossless / Lossy / Lossy
Stream size : 3.44 GiB (9%)
Title : X-Men.The.Last.Stand.2006.2160p.BluRay.x265.10bit.SDR.DTS-HD.MA.6.1-SWTYBLZ
Language : English
Default : Yes
Forced : No

Audio #2
ID : 3
Format : AC-3
Format/Info : Audio Coding 3
Codec ID : A_AC3
Duration : 1 h 44 min
Bit rate mode : Constant
Bit rate : 640 kb/s
Channel(s) : 6 channels
Channel positions : Front: L C R, Side: L R, LFE
Sampling rate : 48.0 kHz
Frame rate : 31.250 FPS (1536 SPF)
Bit depth : 16 bits
Compression mode : Lossy
Stream size : 477 MiB (1%)
Title : X-Men.The.Last.Stand.2006.2160p.BluRay.x265.10bit.SDR.DTS-HD.MA.6.1-SWTYBLZ
Language : English
Service kind : Complete Main
Default : No
Forced : No

Text #1
ID : 4
Format : UTF-8
Codec ID : S_TEXT/UTF8
Codec ID/Info : UTF-8 Plain Text
Duration : 1 h 42 min
Bit rate : 38 b/s
Count of elements : 814
Stream size : 29.4 KiB (0%)
Title : English-SRT
Language : English
Default : Yes
Forced : No

Text #2
ID : 5
Format : UTF-8
Codec ID : S_TEXT/UTF8
Codec ID/Info : UTF-8 Plain Text
Duration : 1 h 43 min
Bit rate : 41 b/s
Count of elements : 873
Stream size : 31.3 KiB (0%)
Title : English-SDH-SRT
Language : English
Default : No
Forced : No

Text #3
ID : 6
Format : PGS
Muxing mode : zlib
Codec ID : S_HDMV/PGS
Codec ID/Info : Picture based subtitle format used on BDs/HD-DVDs
Duration : 1 h 43 min
Bit rate : 37.0 kb/s
Count of elements : 1746
Stream size : 27.3 MiB (0%)
Title : English-PGS
Language : English
Default : No
Forced : No

Text #4
ID : 7
Format : PGS
Muxing mode : zlib
Codec ID : S_HDMV/PGS
Codec ID/Info : Picture based subtitle format used on BDs/HD-DVDs
Duration : 1 h 43 min
Bit rate : 15.9 kb/s
Count of elements : 1749
Stream size : 11.8 MiB (0%)
Title : Japanese-PGS
Language : Japanese
Default : No
Forced : No

Text #5
ID : 8
Format : PGS
Muxing mode : zlib
Codec ID : S_HDMV/PGS
Codec ID/Info : Picture based subtitle format used on BDs/HD-DVDs
Duration : 1 h 33 min
Bit rate : 322 b/s
Count of elements : 34
Stream size : 221 KiB (0%)
Title : Japanese-PGS
Language : Japanese
Default : No
Forced : No

Text #6
ID : 9
Format : PGS
Muxing mode : zlib
Codec ID : S_HDMV/PGS
Codec ID/Info : Picture based subtitle format used on BDs/HD-DVDs
Duration : 1 h 43 min
Bit rate : 859 b/s
Count of elements : 90
Stream size : 650 KiB (0%)
Title : Japanese-PGS
Language : Japanese
Default : No
Forced : No

Text #7
ID : 10
Format : PGS
Muxing mode : zlib
Codec ID : S_HDMV/PGS
Codec ID/Info : Picture based subtitle format used on BDs/HD-DVDs
Duration : 1 h 42 min
Bit rate : 34.4 kb/s
Count of elements : 1588
Stream size : 25.3 MiB (0%)
Title : Spanish-PGS
Language : Spanish
Default : No
Forced : No

Text #8
ID : 11
Format : PGS
Muxing mode : zlib
Codec ID : S_HDMV/PGS
Codec ID/Info : Picture based subtitle format used on BDs/HD-DVDs
Duration : 1 h 42 min
Bit rate : 17.6 kb/s
Count of elements : 1744
Stream size : 12.9 MiB (0%)
Title : French-PGS
Language : French
Default : No
Forced : No

Text #9
ID : 12
Format : PGS
Muxing mode : zlib
Codec ID : S_HDMV/PGS
Codec ID/Info : Picture based subtitle format used on BDs/HD-DVDs
Duration : 1 h 42 min
Bit rate : 19.1 kb/s
Count of elements : 1344
Stream size : 14.1 MiB (0%)
Title : Spanish-PGS
Language : Spanish
Default : No
Forced : No

Text #10
ID : 13
Format : PGS
Muxing mode : zlib
Codec ID : S_HDMV/PGS
Codec ID/Info : Picture based subtitle format used on BDs/HD-DVDs
Duration : 1 h 42 min
Bit rate : 18.7 kb/s
Count of elements : 1342
Stream size : 13.8 MiB (0%)
Title : Danish-PGS
Language : Danish
Default : No
Forced : No

Text #11
ID : 14
Format : PGS
Muxing mode : zlib
Codec ID : S_HDMV/PGS
Codec ID/Info : Picture based subtitle format used on BDs/HD-DVDs
Duration : 1 h 42 min
Bit rate : 18.3 kb/s
Count of elements : 1236
Stream size : 13.5 MiB (0%)
Title : Dutch-PGS
Language : Dutch
Default : No
Forced : No

Text #12
ID : 15
Format : PGS
Muxing mode : zlib
Codec ID : S_HDMV/PGS
Codec ID/Info : Picture based subtitle format used on BDs/HD-DVDs
Duration : 1 h 42 min
Bit rate : 20.2 kb/s
Count of elements : 1342
Stream size : 14.8 MiB (0%)
Title : Finnish-PGS
Language : Finnish
Default : No
Forced : No

Text #13
ID : 16
Format : PGS
Muxing mode : zlib
Codec ID : S_HDMV/PGS
Codec ID/Info : Picture based subtitle format used on BDs/HD-DVDs
Duration : 1 h 42 min
Bit rate : 21.4 kb/s
Count of elements : 1370
Stream size : 15.8 MiB (0%)
Title : German-PGS
Language : German
Default : No
Forced : No

Text #14
ID : 17
Format : PGS
Muxing mode : zlib
Codec ID : S_HDMV/PGS
Codec ID/Info : Picture based subtitle format used on BDs/HD-DVDs
Duration : 1 h 42 min
Bit rate : 18.9 kb/s
Count of elements : 1342
Stream size : 13.9 MiB (0%)
Title : Italian-PGS
Language : Italian
Default : No
Forced : No

Text #15
ID : 18
Format : PGS
Muxing mode : zlib
Codec ID : S_HDMV/PGS
Codec ID/Info : Picture based subtitle format used on BDs/HD-DVDs
Duration : 1 h 42 min
Bit rate : 18.4 kb/s
Count of elements : 1342
Stream size : 13.5 MiB (0%)
Title : Norwegian-PGS
Language : Norwegian
Default : No
Forced : No

Text #16
ID : 19
Format : PGS
Muxing mode : zlib
Codec ID : S_HDMV/PGS
Codec ID/Info : Picture based subtitle format used on BDs/HD-DVDs
Duration : 1 h 42 min
Bit rate : 14.7 kb/s
Count of elements : 1098
Stream size : 10.8 MiB (0%)
Title : Swedish-PGS
Language : Swedish
Default : No
Forced : No

Text #17
ID : 20
Format : PGS
Muxing mode : zlib
Codec ID : S_HDMV/PGS
Codec ID/Info : Picture based subtitle format used on BDs/HD-DVDs
Duration : 1 h 43 min
Bit rate : 33.6 kb/s
Count of elements : 1743
Stream size : 24.8 MiB (0%)
Title : Chinese-PGS
Language : Chinese
Default : No
Forced : No

Text #18
ID : 21
Format : PGS
Muxing mode : zlib
Codec ID : S_HDMV/PGS
Codec ID/Info : Picture based subtitle format used on BDs/HD-DVDs
Duration : 1 h 42 min
Bit rate : 17.1 kb/s
Count of elements : 1374
Stream size : 12.6 MiB (0%)
Title : Czech-PGS
Language : Czech
Default : No
Forced : No

Text #19
ID : 22
Format : PGS
Muxing mode : zlib
Codec ID : S_HDMV/PGS
Codec ID/Info : Picture based subtitle format used on BDs/HD-DVDs
Duration : 1 h 43 min
Bit rate : 37.2 kb/s
Count of elements : 1697
Stream size : 27.5 MiB (0%)
Title : Chinese-PGS
Language : Chinese
Default : No
Forced : No

Text #20
ID : 23
Format : PGS
Muxing mode : zlib
Codec ID : S_HDMV/PGS
Codec ID/Info : Picture based subtitle format used on BDs/HD-DVDs
Duration : 1 h 42 min
Bit rate : 17.7 kb/s
Count of elements : 1342
Stream size : 13.0 MiB (0%)
Title : Polihs-PGS
Language : Polish
Default : No
Forced : No

Menu
00:00:00.000 : :Chapter 1
00:05:17.191 : :Chapter 2
00:09:21.310 : :Chapter 3
00:12:19.405 : :Chapter 4
00:17:53.072 : :Chapter 5
00:23:09.137 : :Chapter 6
00:30:57.897 : :Chapter 7
00:33:57.493 : :Chapter 8
00:38:02.363 : :Chapter 9
00:43:48.167 : :Chapter 10
00:50:36.742 : :Chapter 11
00:55:37.083 : :Chapter 12
00:58:02.854 : :Chapter 13
01:01:13.878 : :Chapter 14
01:03:56.749 : :Chapter 15
01:08:16.801 : :Chapter 16
01:10:40.569 : :Chapter 17
01:13:21.313 : :Chapter 18
01:19:11.538 : :Chapter 19
01:22:10.091 : :Chapter 20
01:25:03.848 : :Chapter 21
01:29:41.751 : :Chapter 22
01:34:25.701 : :Chapter 23
01:36:02.590 : :Chapter 24


Nội Dung: Phim X-men 3: The Last Stand 2006 tiếp nối 2 phần trước. Nhưng lần này, cộng đồng những người bị đột biến đứng trước ngã ba đường: phải lựa chọn tiếp tục cuộc sống bị xã hội xa lánh để giữ lại những sức mạnh độc nhất tạo hoá ban tặng, hoặc từ bỏ tất cả để hoà nhập trong cuộc sống bình thường. Mâu thuẫn bắt đầu giữa người đứng đầu dị nhân Chales Xavier và Eric Lehnsherr khi một người ủng hộ chủ trương một người vì mọi người còn một người lại khăng khăng kẻ mạnh nhất sẽ chiến thắng. Và liều thuốc hoá giải cho người đột biến những tưởng là con đường giải thoát họ lại trở thành nguyên nhân gián tiếp đưa cả dị nhân và thường nhân vào cuộc đấu tranh quyết liệt. Diễn viên góp mặt gồm có Hugh Jackma, Patrick Stewart, Ian McKellen, Famke Janssen, James Marsden với Bryan Singer là đạo diễn. Một cuộc chiến để kết thúc tất cả, để đưa ra một phán quyết cuối cùng…









[video=youtube;dv-7FY5gm0w]



Link FShare.vn


Link 4Share.vn


Link Subscene.Com


+ KHO GAME PC , PHIM HD , GHOST , SOFTWARE ĐỒ SỘ NHẤT VIỆT NAM
-----
+ KHO PHIM HD CẬP NHẬT LIÊN TỤC
-----
+ KHO GAME PC CẬP NHẬT LIÊN TỤC
-----
+ KHO GHOST + WINDOW + SOFTWARE CẬP NHẬT LIÊN TỤC
-----
+ KHO NHẠC, LOSSLESS CẬP NHẬT LIÊN TỤC

 

Bình luận

Bài xem nhiều

Chia sẻ kiến thức - Download phần mềm